Los Vengadores Unidos 26/26 1080p-mkv-Dual[FD][MG]

Los Vengadores Unidos 26/26 1080p-mkv-Dual[FD][MG]









Serie de TV basada en Los Vengadores.


Título original

Marvel's Avengers Assemble (TV Series)

Año

2013

Duración

22 min.

País

 Estados Unidos

Director

Eric Radomski, Jeff Allen, Tim Eldred

Guión

Joe Casey, Joe Kelly, Duncan Rouleau, Steven T. Seagle

Música

Kristopher Carter, Michael McCuistion, Lolita Ritmanis

Fotografía

Animation

Reparto

Animation

Productora

Marvel Entertainment

Género

Serie de TV. Animación. Fantástico. Ciencia ficción | Superhéroes. Cómic. Marvel Comics


Información general

Video

ID                             : 1

Format                         : AVC

Format/Info                    : Advanced Video Codec

Format profile                 : [email protected]

Format settings, CABAC         : Yes

Format settings, ReFrames      : 4 frames

Codec ID                       : V_MPEG4/ISO/AVC

Duration                       : 22mn 3s

Bit rate                       : 2 300 Kbps

Width                          : 1 920 pixels

Height                         : 1 080 pixels

Display aspect ratio           : 16:9

Frame rate mode                : Constant

Frame rate                     : 23.976 fps

Color space                    : YUV

Chroma subsampling             : 4:2:0

Bit depth                      : 8 bits

Scan type                      : Progressive

Bits/(Pixel*Frame)             : 0.046

Stream size                    : 355 MiB (90%)



Audio

ID                             : 2

Format                         : AC-3

Format/Info                    : Audio Coding 3

Mode extension                 : CM (complete main)

Format settings, Endianness    : Big

Codec ID                       : A_AC3

Duration                       : 22mn 3s

Bit rate mode                  : Constant

Bit rate                       : 192 Kbps

Channel count                  : 2 channels

Channel positions              : Front: L R

Sampling rate                  : 48.0 KHz

Bit depth                      : 16 bits

Compression mode               : Lossy

Stream size                    : 30.3 MiB (8%)

Language                       : Spanish

Default                        : Yes

Forced                         : No




Calidad: MicroHD iTunes
Temporada: 1
Episodios: 26
Contenedor: MKV
Imagen: 1920x1080 Excelente...
Tamaño: 400Mb aprox cada uno
Idioma: Español Español y Español Latino.














Importante:
Descomprimir con 7zip, Winrar, etc. Puedes comprobar su calidad ingresando el link de firedrive.com




Enlaces De Descarga



Audios Español Latinos

Comprimidos: rar 

Archivos: 4

Pass: KUROZUKA - identi.li






En el transcurso de la semana iré subiendo los Audios que faltan... saludos


Enlaces De Descarga



Pass: KUROZUKA - identi.li
Los Vengadores Unidos 26/26 1080p-mkv-Dual[FD][MG]
29 Puntos Score: 7.3/10
Visitas: 8478 Favoritos: 15
Ver los usuarios que votaron...
34 Comentarios Los Vengadores Unidos 26/26 1080p-mkv-Dual[FD][MG]
Gracias por el aporte men bajando
estan en castellano amigo o como?
men el 15 y 16 son el mismo 15, espero lo puedas cambiar o reparar
gracias amigo y para cuando estaran los audios latino! SAludos amigo
viejo yo lo veo en ingles y subs en espa?
en latino porfavor   excelente aporte
men los dos link 15 y 16 son el mismo, se agradece sel esfuerzo

Episodio 15 - Planeta Doom
http://www.firedrive.com/file/B68D11FE8CFF4AD3
Episodio 16 - Que vengan los malos
http://www.firedrive.com/file/B68D11FE8CFF4AD3
@erwing07 listo corregido - gracias por avisar.
Episodio 16 - Que vengan los malos
http://www.firedrive.com/file/40C5610E2A1CEB41
Audios en latino subido
viejo una pregunta y muchas gracias pero los videos ya tienen el audio insertado o hay que hacerlo? y muchas gracias +10
bro estan bien estos caps al descomprimir?? esque me tiran error 15 16 17 18 19 20 22 23 24 25 26
gracias men se agradece el esfuerzo
Que buena calidad! me podr?
@skellingto es rara yo las descargue y ni un problema tuve!
@kurozuka Hola amigo ya me descargue la serie pero vi los audios en latino ... mi pregunta es como los pego o se agregan a los capitulos .... antemano gracias muy buena serie y calidad  
Muchas Gracias muy buena calidad!!! esperando los audios que restan!!!
Hola amigo ya me descargue la serie pero vi los audios en latino ... mi pregunta es como los pego o se agregan a los capitulos .... antemano gracias muy buena serie y calidad  si me uno a la pregunta
@gatojuanjo @antonio90 --------->leer>>>>>>><<<>>>hola y disculpa la demora, los audios latino se colocan en el contenedor mkv. dentro de este se encuentra el audio por defecto(espa?
muchas gracias ya lo hice y todo perfecto solo me faltan los del 21 al 26 no se si ya los subiste pero a mi solo me aparecen del 1 al 20
de antemano gracias est?
@kurozuka gracias por el dato de los audios  
los audios del 21 al 26 donde estan en latino??
fregaderas sube las cosas  bien
Hola amigo @kurozuka una pregunta no tendras el audio del caitulo 19 ?? ya que es que esta me da error con las voces al sincronizarlo con el "mkvmerg GUI"
y la temporada 2. donde esta
Gracias por el gran aporte, pero podrias resubirlo en mega.
Esta mal la categoria, es una Serie y se encuentra en la seccion PELICULAS. (Igual buen aporte)  
podrias subir los faltantes
Porfa los faltantes!!!!! Mi hmno los necesita xfa!!
Para dejar un comentario Registrate! o.. eres ya usuario? Accede!