Littlest Pet Shop 2014 DVDRip Xvid Audio Latino





Título original Littlest Pet Shop

Año 2014 (DVD)

Duración 64 min.

País Estados Unidos

Director Sarah Tarry

Guion Tim Cahill, Julie McNally Cahill

Música Steffan Andrews

Reparto Animation

Productora DHX Media  Hasbro Studios

Género Animación. Comedia. Infantil  Animales




Una chica que trabaja en una tienda de animales tiene la capacidad de hablar con ellos.



Format                                   : AVI

Format/Info                              : Audio Video Interleave

File size                                : 669 MiB

Duration                                 : 1h 4mn

Overall bit rate                         : 1 446 Kbps

Movie name                               :  Littlest Pet Shop 2014

Director                                 : Claudio1985

Recorded date                            : 21-08-2014 - By Claudio

Writing application                      : VirtualDubMod 1.5.10.2 (build 2540/release)

Writing library                          : VirtualDubMod build 2540/release


Video

ID                                       : 0

Format                                   : MPEG-4 Visual

Format profile                           : Advanced [email protected]

Format settings, BVOP                    : No

Format settings, QPel                    : No

Format settings, GMC                     : No warppoints

Format settings, Matrix                  : Default (H.263)

Codec ID                                 : XVID

Codec ID/Hint                            : XviD

Duration                                 : 1h 4mn

Bit rate                                 : 1 179 Kbps

Width                                    : 640 pixels

Height                                   : 360 pixels

Display aspect ratio                     : 16:9

Frame rate                               : 29.970 fps

Color space                              : YUV

Chroma subsampling                       : 4:2:0

Bit depth                                : 8 bits

Scan type                                : Progressive

Compression mode                         : Lossy

Bits/(Pixel*Frame)                       : 0.171

Stream size                              : 545 MiB (81%)

Writing library                          : Magic0432


Audio

ID                                       : 1

Format                                   : AC-3

Format/Info                              : Audio Coding 3

Mode extension                           : CM (complete main)

Format settings, Endianness              : Big

Codec ID                                 : 2000

Duration                                 : 1h 4mn

Bit rate mode                            : Constant

Bit rate                                 : 256 Kbps

Channel(s)                               : 6 channels

Channel positions                        : Front: L C R, Side: L R, LFE

Sampling rate                            : 48.0 KHz

Bit depth                                : 16 bits

Compression mode                         : Lossy

Stream size                              : 118 MiB (18%)

Alignment                                : Split accross interleaves

Interleave, duration                     : 33 ms (1.00 video frame)

Interleave, preload duration             : 500 ms

Title                                    :  Littlest Pet Shop 2014 - Claudio AC3 5.1 Latino















descarga



Littlest Pet Shop 2014 DVDRip Xvid Audio Latino
17 Puntos Score: 5.7/10
Visitas: 3071 Favoritos: 1
Ver los usuarios que votaron...
5 Comentarios Littlest Pet Shop 2014 DVDRip Xvid Audio Latino
me la llevo para mi hija, gracias por el aporte
he tratado de bajarla mas de 5 veces y no puedo !!
Para dejar un comentario Registrate! o.. eres ya usuario? Accede!