Tom And Jerry The Lost Dragon 2014 DVDRip Lat-Ing






Tom And Jerry The Lost Dragon 2014 DVDRip XviD-iFT



Título original: Tom and Jerry: The Lost Dragon

Año: 2014

Duración: 57 min.

País: Estados Unidos

Director: Spike Brandt, Tony Cervone

Guión: Spike Brandt, Tony Cervone

Reparto Doblaje: Kelly Stables

Vicki Lewis

Jim Cummings

Laraine Newman

Wayne Knight

Dee Bradley Baker

Greg Ellis

Jess Harnell

Richard McGonagle 

Productora: Turner Entertainment, Warner Bros. Animation

Género: Animacion




Tom y Jerry deben salvar a un dragón bebé de una bruja malvada, y luego devolver al recién nacido a su madre enojada.










Format                                   : AVI

Format/Info                              : Audio Video Interleave

File size                                : 567 MiB

Duration                                 : 56mn 40s

Overall bit rate                         : 1 398 Kbps

Movie name                               : Tom And Jerry The Lost Dragon 2014 DVDRip XviD-iFT-By_Claudio

Director                                 : Claudio

Writing application                      : VirtualDubMod 1.5.10.2 (build 2540/release)

Writing library                          : VirtualDubMod build 2540/release


Video

ID                                       : 0

Format                                   : MPEG-4 Visual

Format profile                           : [email protected]

Format settings, BVOP                    : No

Format settings, QPel                    : No

Format settings, GMC                     : No warppoints

Format settings, Matrix                  : Default (H.263)

Codec ID                                 : XVID

Codec ID/Hint                            : XviD

Duration                                 : 56mn 40s

Bit rate                                 : 1 000 Kbps

Width                                    : 624 pixels

Height                                   : 352 pixels

Display aspect ratio                     : 16:9

Frame rate                               : 23.976 fps

Color space                              : YUV

Chroma subsampling                       : 4:2:0

Bit depth                                : 8 bits

Scan type                                : Progressive

Compression mode                         : Lossy

Bits/(Pixel*Frame)                       : 0.190

Stream size                              : 405 MiB (72%)

Title                                    : Claudio

Writing library                          : XviD 1.1.2 (UTC 2006-11-01)


Audio #1

ID                                       : 1

Format                                   : AC-3

Format/Info                              : Audio Coding 3

Mode extension                           : CM (complete main)

Format settings, Endianness              : Big

Codec ID                                 : 2000

Duration                                 : 56mn 40s

Bit rate mode                            : Constant

Bit rate                                 : 256 Kbps

Channel(s)                               : 6 channels

Channel positions                        : Front: L C R, Side: L R, LFE

Sampling rate                            : 48.0 KHz

Bit depth                                : 16 bits

Compression mode                         : Lossy

Stream size                              : 104 MiB (18%)

Alignment                                : Split accross interleaves

Interleave, duration                     : 42 ms (1.00 video frame)

Interleave, preload duration             : 500 ms

Title                                    : Claudio


Audio #2

ID                                       : 2

Format                                   : MPEG Audio

Format version                           : Version 1

Format profile                           : Layer 3

Mode                                     : Joint stereo

Mode extension                           : MS Stereo

Codec ID                                 : 55

Codec ID/Hint                            : MP3

Duration                                 : 56mn 40s

Bit rate mode                            : Constant

Bit rate                                 : 128 Kbps

Channel(s)                               : 2 channels

Sampling rate                            : 48.0 KHz

Compression mode                         : Lossy

Stream size                              : 51.9 MiB (9%)

Alignment                                : Split accross interleaves

Interleave, duration                     : 42 ms (1.00 video frame)

Interleave, preload duration             : 500 ms

Title                                    : Claudio

Writing library                          : LAME3.98

























Firedrive


Tom And Jerry The Lost Dragon 2014 DVDRip Lat-Ing
22 Puntos Score: 7.3/10
Visitas: 2274 Favoritos: 3
Ver los usuarios que votaron...
4 Comentarios Tom And Jerry The Lost Dragon 2014 DVDRip Lat-Ing
el cocodrilo de todos los perros van al cielo
gracias por compartirlo, lo ver?
Muchas gracias pero podrias solo subir el audio latino de esta peli por favor, de antemano gracias
es decir, subir solo el audio latino por separado por favor
Para dejar un comentario Registrate! o.. eres ya usuario? Accede!