Peabody & Sherman (solo audio latino)





PROPIEDADES DEL AUDIO (2.0 ch)




General
Complete name                            : F:UsersGiancarloDocumentsMiponyPeabody y Sherman_audio latino.aac
Format                                   : ADTS
Format/Info                              : Audio Data Transport Stream
File size                                : 22.0 MiB
Overall bit rate mode                    : Variable

Audio
Format                                   : AAC
Format/Info                              : Advanced Audio Codec
Format version                           : Version 4
Format profile                           : HE-AAC / LC
Bit rate mode                            : Variable
Channel(s)                               : 2 channels
Channel positions                        : Front: L R
Sampling rate                            : 48.0 KHz / 24.0 KHz
Compression mode                         : Lossy
Stream size                              : 22.0 MiB (100%)




ENLACE DE DESCARGA:



http://www.4shared.com/file/Q8Tr5Ro0ce/Peabody__Sherman_audio_latino.html




PROPIEDADES DEL AUDIO (5.1 ch)




General
Complete name                            : F:UsersGiancarloDocumentsMiponysherman-latino51.AC3
Format                                   : AC-3
Format/Info                              : Audio Coding 3
File size                                : 254 MiB
Duration                                 : 1h 32mn
Overall bit rate mode                    : Constant
Overall bit rate                         : 384 Kbps

Audio
Format                                   : AC-3
Format/Info                              : Audio Coding 3
Mode extension                           : CM (complete main)
Format settings, Endianness              : Big
Duration                                 : 1h 32mn
Bit rate mode                            : Constant
Bit rate                                 : 384 Kbps
Channel(s)                               : 6 channels
Channel positions                        : Front: L C R, Side: L R, LFE
Sampling rate                            : 48.0 KHz
Bit depth                                : 16 bits
Compression mode                         : Lossy
Stream size                              : 254 MiB (100%)




ENLACE DE DESCARGA:



https://mega.co.nz/#!1o9UwaIK!x6ee6H1crQZO0CLoMChjvstdZwNJQbCBuV4PBz2BhjI
Peabody & Sherman (solo audio latino)
15 Puntos Score: 7.5/10
Visitas: 1196 Favoritos: 0
Ver los usuarios que votaron...
10 Comentarios Peabody & Sherman (solo audio latino)
gracias por el trabajo. No lo tienes en 5.1 channels?
 
Cita crackvader: Mostrar

si lo tengo pero demoraria demasidado para subirlo x eso subo una version ligera...para los que quieran algo ligero y descarguen rapido
@crackvader ...ahi esta amigoo en 5.1   ...disfrutalo
GRACIASS LOCO!!! ASI NO TENGO QUE DESCARGAR EL DVDRIP ME AHORRAS UN TRABAJITO. MIL GRACIAS!.
Cita vansoniq: Mostrar

si soy loco!!! jajajajajajajajaja....disfruta amigo!!!  
gracias      
muchas gracias, me sirvi?
Cita exodisto: Mostrar
GRACIASSSSSS!!!!!
Muchisimas Gracias
Para dejar un comentario Registrate! o.. eres ya usuario? Accede!