Capitán América 2 (solo audio latino)






PROPIEDADES DEL AUDIO:



General
Complete name                            : F:UsersGiancarloDocumentsMiponyCapitan.America.2.The Winter.Soldier_track1_und.aac
Format                                   : ADTS
Format/Info                              : Audio Data Transport Stream
File size                                : 32.4 MiB
Overall bit rate mode                    : Variable

Audio
Format                                   : AAC
Format/Info                              : Advanced Audio Codec
Format version                           : Version 4
Format profile                           : HE-AAC / LC
Bit rate mode                            : Variable
Channel(s)                               : 2 channels
Channel positions                        : Front: L R
Sampling rate                            : 48.0 KHz / 24.0 KHz
Compression mode                         : Lossy
Stream size                              : 32.4 MiB (100%)




ENLACE DE DESCARGA:




http://www.4shared.com/file/2-tTJJPUce/Capitan_America_2_audio_latino.html
Capitán América 2 (solo audio latino)
10 Puntos Score: 5/10
Visitas: 1842 Favoritos: 0
Ver los usuarios que votaron...
14 Comentarios Capitán América 2 (solo audio latino)
con que programa pongo el audio???
muchas gracias lo nesecitaba     lo pondre trial ami pelicula  ;D por cierto no esta muy peque?
Cita ayaxivan: Mostrar

aca t explican como: http://www.identi.li/index.php?topic=135790
Cita kamikaze00: Mostrar
no podrias subirlo por mega
Cita ErFavio: Mostrar

lo kieres para ahorita?.... boy a demorar... si kieres?
Cita exodisto: Mostrar

no puedo subirlo brother a MEGA lo siento  
alguien tiene el Latino 5.1 Ac3-48hz-448 bit rate.Tama?
se que el audio que estas ofreciendo es 2.0...osea dos canales...pero muy bajito en calidad..pero puedes conseguir este.......ejemplo

Ejemplo

Audio #1

 Format : AC-3
 Format/Info : Audio Coding 3
 Codec ID : A_AC3
 Bit rate mode : Constant
 Bit rate : 448 Kbps-------------------Numeros Mas Alto  mejor el audio 5.1 Ac3
 Channel count : 6 channels---------------------------------------------5.1-Ac3=6 Canales
 Channel positions : Front: L C R, Side: L R, LFE
 Sampling rate : 48.0 KHz---------------------------Mejor Calidad
 Bit depth : 16 bits
 Stream size : 454 MiB-----------------------------------Casi 500mb Tama?
Cita badboy44: Mostrar
Cita exodisto: Mostrar
gracias por su atencion.....exodisto...crackvader ...Muy Agradesido.!!!!
Amigo Gracias por el Audio. No tendras el Audio del Capitan America El Primer Vengador? en 5.1?
Cita Pichi94: Mostrar

dejame y lo checo!!! ok
Para dejar un comentario Registrate! o.. eres ya usuario? Accede!