Primer Escuadron Avi 1080p Audio Latino

Primer Escuadron Avi 1080p Audio Latino










En 1942 el combate que mantiene Alemania con Rusia parece no tener fin y ambos países comenzarán a desarrollar unidades especializadas en la magia y el ocultismo. Nadya, una joven medium, se convertirá en la mejor arma del ejército ruso para solventar a su favor ?el momento de la verdad?, el segundo decisivo en que una batalla se gana o se pierde.


la pelicula pesa 1.40GB








Enlaces De Descarga

slayers21
Primer Escuadron Avi 1080p Audio Latino
10 Puntos Score: 10/10
Visitas: 1907 Favoritos: 2
Ver los usuarios que votaron...
5 Comentarios Primer Escuadron Avi 1080p Audio Latino
Buenas Slayers. Si no te molesta me podrias decir que codecs usas vos, porque me descargue varias pelis tuyas y las que estan en formato AVI (con los MP4 no tengo problemas) no puedo reproducirles el sonido.
Cuando las puse en el televisor (que me reproduce casi cualquier cosa) no me sorprend?
@Valykan vaya q sorpresa la mia eh  estuve revisando y la verdad  mi tv  reproduce bien lo probe en mi dvd theater y me salio error de codec  pense q no habria ningun problema para reproducir en cualquier aparato pero  me decis q no es asi  voy a tener que cambiar todo    si lo miras a travez de una pc instalate  k-lite codec y bueno yo voy a tener q  reiniciar todo de nuevo  

neral
Complete name                            : C:UsersuserDesktopframePrimer Escuadron]1080p.avi
Format                                   : AVI
Format/Info                              : Audio Video Interleave
Format profile                           : OpenDML
File size                                : 1.40 GiB
Duration                                 : 1h 0mn
Overall bit rate                         : 3 315 Kbps
Writing application                      : Lavf54.63.104

Video
ID                                       : 0
Format                                   : AVC
Format/Info                              : Advanced Video Codec
Format profile                           : [email protected]
Format settings, CABAC                   : Yes
Format settings, ReFrames                : 1 frame
Codec ID                                 : H264
Duration                                 : 1h 0mn
Bit rate                                 : 3 142 Kbps
Width                                    : 1 920 pixels
Height                                   : 1 080 pixels
Display aspect ratio                     : 16:9
Frame rate mode                          : Variable
Frame rate                               : 23.976 fps
Color space                              : YUV
Chroma subsampling                       : 4:2:0
Bit depth                                : 8 bits
Scan type                                : Progressive
Bits/(Pixel*Frame)                       : 0.063
Stream size                              : 1.30 GiB (93%)
Writing library                          : x264 core 129
Encoding settings                        : cabac=1 / ref=1 / deblock=1:0:0 / analyse=0x1:0x131 / me=dia / subme=2 / psy=1 / psy_rd=1.00:0.00 / mixed_ref=0 / me_range=16 / chroma_me=1 / trellis=0 / 8x8dct=0 / cqm=0 / deadzone=21,11 / fast_pskip=1 / chroma_qp_offset=0 / threads=4 / lookahead_threads=1 / sliced_threads=0 / nr=0 / decimate=1 / interlaced=0 / bluray_compat=0 / constrained_intra=0 / bframes=0 / weightp=2 / keyint=250 / keyint_min=25 / scenecut=40 / intra_refresh=0 / rc_lookahead=40 / rc=abr / mbtree=1 / bitrate=3142 / ratetol=1.0 / qcomp=0.60 / qpmin=10 / qpmax=51 / qpstep=4 / ip_ratio=1.41 / aq=1:1.00

Audio
ID                                       : 1
Format                                   : AC-3
Format/Info                              : Audio Coding 3
Codec ID                                 : 00001000-0000-0020-8000-00AA00389B71
Duration                                 : 1h 0mn
Bit rate                                 : 224 Kbps
Channel(s)                               : 6 channels
Channel positions                        : Front: L C R, Back: L R, LFE
Sampling rate                            : 48.0 KHz
Bit depth                                : 16 bits
Compression mode                         : Lossy
Stream size                              : 96.9 MiB (7%)
Interleave, duration                     : 32 ms (0.77 video frame)
bueno men gracias por el dato   tengo q comprar un dvd para ver si lo puedo reproducir en el  home theater
Cita slayer21: Mostrar
Bien, muchas gracias.
K-Litle entonces, la verdad es que ya lo tenia instalado pero viste lo que pasa cuando formateas, despu?
Parece interesante la descargare a ver que tal gracias  
Para dejar un comentario Registrate! o.. eres ya usuario? Accede!