007- James Bond - 3 No Oficiales - Brrip (Mega)






Hola amigos ... POR FIN!!!!!! .... Lo prometido es deuda, traigo las dós películas consideradas no oficiales dentro la saga y el episodio de Tv, es decir que son 3 "películas" y con esto quedamos con la colección completa...

1. Casino Royale - 1954 (Inglés Subtitulos pegados)

2. Casino Royale - 1967 (Inglés Subtitulada)

3. Never Say Never Again - 1983 (Dual)


Espero que sea de su agrado.... 





Lamentablemente creo que ya no podré dar soporte a la saga publicada si se cae algún link.


Descargué un Torrent de James Bond donde cada película pesa 5 Gigas aprox. a las cuales les pegaré el audio latino, por ende tendré que borrar las que ya publiqué porque ya no tengo espacio en mis discos....  POR FAVOR DESCARGUEN Y APROVECHEN LAS QUE YA ESTÁN PUBLICADAS!!!!!


Aspiro a publicar después las Bandas Sonoras de todas las películas y varios libros en español que también son muy buenos... 


CREO QUE ESTÁ PROHIBIDO MENCIONAR, PERO AGRADEZCO MUCHO A @oscar525 ... OTRO SUPER FAN DE JAMES BOND QUE APORTÓ BASTANTE... SIN SU VALIOSÍSIMA AYUDA Y APOYO NO HABRÍA PODIDO COMPLETAR LA SAGA CON CASINO ROYAL "CLIMAX" DE 1954.... 


MIL GRACIAS POR TU AYUDA AMIGO!!!!!!








la primera pelicula es la de 1954


1954 - Casino royale "climax"

(Audio ingles - subtitulada)









SINOPSIS



Casino Royale es una adaptación para el programa de la televisión CBS Climax! de la novela homónima de Ian Fleming. El episodio fue la primera adaptación de la novela, con Barry Nelson como James Bond y Peter Lorre como Le Chiffre. Aunque es una adaptación a la novela, fueron modificadas varias cosas, por ejemplo a JAMES BOND se le llama «Jimmy Bond» y aquí no es un agente inglés sino americano.

El show fue olvidado tras su muestra inicial hasta que la mayor parte fue encontrada en la década de 1980 por el historiador de cine Jim Schoenberger, con el final (incluyendo créditos) siendo encontrado luego. Los derechos DEL programa fueron adquiridos por MGM al mismo tiempo que los derechos de la versión cinematográfica de 1967 de Casino Royale, allanando el camino legal y permitiéndoles hacer la película del 2006 del mismo nombre.





MEDIAINFO:



Esa es la ficha técnica sacada de la película, se informa formato, peso, calidad, duración, Bit rate y demás datos que son necesarios para conocer la calidad real de la misma, para aquellos siempre solicitan datos puntuales:




General

Format                                   : AVI
Format/Info                              : Audio Video Interleave
File size                                : 481 MiB
Duration                                 : 50mn 24s
Overall bit rate                         : 1 335 Kbps
Writing application                      : MEncoder SVN-r22963
Writing library                          : MPlayer

Video
ID                                       : 0
Format                                   : MPEG-4 Visual
Format profile                           : [email protected]
Format settings, BVOP                    : No
Format settings, QPel                    : No
Format settings, GMC                     : No warppoints
Format settings, Matrix                  : Default (H.263)
Codec ID                                 : XVID
Codec ID/Hint                            : XviD
Duration                                 : 50mn 24s
Bit rate                                 : 1 195 Kbps
Width                                    : 480 pixels
Height                                   : 320 pixels
Display aspect ratio                     : 3:2
Frame rate                               : 23.976 fps
Color space                              : YUV
Chroma subsampling                       : 4:2:0
Bit depth                                : 8 bits
Scan type                                : Progressive
Compression mode                         : Lossy
Bits/(Pixel*Frame)                       : 0.324
Stream size                              : 431 MiB (90%)
Writing library                          : Lavc51.40.2

Audio
ID                                       : 1
Format                                   : MPEG Audio
Format version                           : Version 1
Format profile                           : Layer 3
Codec ID                                 : 55
Codec ID/Hint                            : MP3
Duration                                 : 50mn 24s
Bit rate mode                            : Constant
Bit rate                                 : 128 Kbps
Channel(s)                               : 2 channels
Sampling rate                            : 44.1 KHz
Compression mode                         : Lossy
Stream size                              : 46.1 MiB (10%)
Alignment                                : Aligned on interleaves
Interleave, duration                     : 26 ms (0.63 video frame)
Interleave, preload duration             : 522 ms
Writing library                          : LAME3.97






captura



Ya con esta captura se confirma el HD de esta la película...   ... además la carátula del Blu Ray lo confirma...     












Bueno, como lo comentaba les dejo el LINK de descarga por MEGA... es UNO SOLO!!!






Igualmente lo dejo para descarga con el JDownloader










la segunda es la de 1967








1967 - casino royale


(Audio ingles - subtitulada)


 















SINOPSIS




Skyfall Casino Royale es una comedia surrealista producida por Columbia Pictures en 1967 y protagonizada por un reparto coral de actores y directores. Se basa ligeramente en la primera novela sobre el agente James Bond de Ian Fleming, que había sido publicada en 1953. La película está protagonizada por David Niven como el Bond "original", Sir James Bond, 007. Forzado a abandonar su retiro para investigar las muertes y desapariciones de espías internacionales, pronto enfrenta al misterioso Dr. Noah y SMERSH.


El eslogan de la película: "Casino Royale es demasiado... para un James Bond!" se refiere a la artimaña de Bond para engañar a SMERSH en que otros seis agentes pretenden ser "James Bond", el maestro de bacará Evelyn Tremble (Peter Sellers); espía millonaria Vesper Lynd (Ursula Andress); la secretaria de Bond, la Srta. Moneypenny (Barbara Bouchet); la hija de Bond con Mata Hari, Mata Bond (Joanna Pettet); y los agentes británicos "Coop" (Terence Cooper) y "The Detainer" (Daliah Lavi).


Charles K. Feldman, el productor, había adquirido los derechos cinematográficos y había intentado realizar Casino Royale como una película de Bond producida por EON Productions; sin embargo, Feldman y los productores de la serie EON, Albert R. Broccoli y Harry Saltzman, no lograron llegar a un acuerdo. Creyendo que no podría competir con la serie producida por EON, Feldman resolvió producir la película como una sátira.


La película ha tenido una recepción generalmente negativa entre críticos, algunos de los cuales lo consideran como desconcertante y desorganizada, con el crítico Roger Ebert llamándola "posiblemente la más indulgente película jamás hecha".


(Tomado de Wikipedia)










MEDIAINFO:



Esa es la ficha técnica sacada de la película, se informa formato, peso, calidad, duración, Bit rate y demás datos que son necesarios para conocer la calidad real de la misma, para aquellos siempre solicitan datos puntuales:




General

Format                                   : MPEG-4
Format profile                           : Base Media
Codec ID                                 : isom
File size                                : 1.63 GiB
Duration                                 : 2h 11mn
Overall bit rate mode                    : Variable
Overall bit rate                         : 1 779 Kbps
Encoded date                             : UTC 2012-12-02 14:52:10
Tagged date                              : UTC 2012-12-02 14:52:10




Video

ID                                       : 1
Format                                   : AVC
Format/Info                              : Advanced Video Codec
Format profile                           : [email protected]
Format settings, CABAC                   : Yes
Format settings, ReFrames                : 4 frames
Codec ID                                 : avc1
Codec ID/Info                            : Advanced Video Coding
Duration                                 : 2h 11mn
Bit rate                                 : 1 663 Kbps
Maximum bit rate                         : 8 417 Kbps
Width                                    : 1 920 pixels
Height                                   : 816 pixels
Display aspect ratio                     : 2.35:1
Frame rate mode                          : Constant
Frame rate                               : 23.976 fps
Color space                              : YUV
Chroma subsampling                       : 4:2:0
Bit depth                                : 8 bits
Scan type                                : Progressive
Bits/(Pixel*Frame)                       : 0.044
Stream size                              : 1.52 GiB (93%)
Writing library                          : x264 core 129 r2230 1cffe9f




Audio

ID                                       : 2
Format                                   : AAC
Format/Info                              : Advanced Audio Codec
Format profile                           : LC
Codec ID                                 : 40
Duration                                 : 2h 11mn
Bit rate mode                            : Variable
Bit rate                                 : 112 Kbps
Maximum bit rate                         : 133 Kbps
Channel count                            : 2 channels
Channel positions                        : Front: L R
Sampling rate                            : 48.0 KHz
Compression mode                         : Lossy
Delay relative to video                  : 83ms
Stream size                              : 105 MiB (6%)
Language                                 : English
Encoded date                             : UTC 2012-12-02 14:52:24
Tagged date                              : UTC 2012-12-02 14:52:34










Quiero aclarar que todas las capturas son propias, sacadas directamente de las películas, para que haya mejor claridad sobre el material a descargar



















































































































Bueno, como lo comentaba les dejo el LINK de descarga por MEGA... es UNO SOLO!!!







Igualmente lo dejo para descarga con el JDownloader











la TERCERA pelicula es la de sean connery de 1983 


Sincronizar el audio de esta película fué bastante complicado, tuve que cortar partes de milésimas de segundo de la pelicula, ya que la asincronía era constante, no era problema de los Fps.. en fin el hecho es que la pude arreglar, pero curiosamente tiempo después en la red apareció una versión con el audio latino, asumo que perfecta, igualmente publico la que yo arreglé, esta muy bien.



1983 - never say never again


"nunca digas nunca jamas"


(dual latino - ingles)





             











SINOPSIS




Nunca digas nunca jamás (título en inglés: Never Say Never Again) es una versión cinematográfica de la novela publicada en 1961 Operación Trueno (Thunderball), que previamente había sido adaptada en 1965 bajo el mismo nombre. A diferencia de la mayoría de las películas de James Bond, Nunca digas nunca jamás no fue producido por EON Productions, sino por una productora independiente, uno de cuyos miembros fue Kevin McClory, uno de los escritores originales de la historia de Operación Trueno con Ian Fleming y Jack Whittingham. McClory retuvo los derechos de filmación de la novela tras una larga batalla legal que data de la década de 1960.


La película fue dirigida por Irvin Kershner y, como Operación Trueno, está protagonizada por Sean Connery como el agente del servicio secreto británico James Bond, marcando su regreso al papel 12 años después de Los diamantes son eternos. El título de la película hace referencia a cómo Connery dijo en 1971 que "nunca más" interpretaría a James Bond. Como Connery tenía 52 años al momento de la filmación, la historia presenta a un envejecido Bond, que es traído de vuelta a la acción para investigar el robo de dos armas nucleares por SPECTRE. Lugares de rodaje incluyeron Francia, España, Bahamas y los Elstree Studios en Inglaterra.


Nunca digas nunca jamás fue lanzada por Warner Bros. en octubre de 1983, recibiendo positivos comentarios de la crítica y fue un éxito comercial, recaudando $160 millones en la taquilla, aunque esto era menor que la película Bond producida por EON lanzada en junio del mismo año, Octopussy. En 1997 los derechos de distribución de Nunca digas nunca jamás fueron comprados por Metro-Goldwyn-Mayer, que distribuye las películas Bond de EON, y la compañía ha manejado los posteriores lanzamientos en video de la película.

(Tomado de Wikipedia)






MEDIAINFO:



Esa es la ficha técnica sacada de la película, se informa formato, peso, calidad, duración, Bit rate y demás datos que son necesarios para conocer la calidad real de la misma, para aquellos siempre solicitan datos puntuales:




General

Format                                   : Matroska
Format version                           : Version 4 / Version 2
File size                                : 1.96 GiB
Duration                                 : 2h 14mn
Overall bit rate                         : 2 097 Kbps
Encoded date                             : UTC 2014-05-10 17:36:33
Writing application                      : mkvmerge v6.9.1 ('Blue Panther') 64bit built on Apr 18 2014 18:23:38
Writing library                          : libebml v1.3.0 + libmatroska v1.4.1




Video

ID                                       : 1
Format                                   : AVC
Format/Info                              : Advanced Video Codec
Format profile                           : [email protected]
Format settings, CABAC                   : Yes
Format settings, ReFrames                : 4 frames
Codec ID                                 : V_MPEG4/ISO/AVC
Duration                                 : 2h 14mn
Nominal bit rate                         : 1 663 Kbps
Width                                    : 1 920 pixels
Height                                   : 816 pixels
Display aspect ratio                     : 2.35:1
Frame rate mode                          : Constant
Frame rate                               : 23.976 fps
Color space                              : YUV
Chroma subsampling                       : 4:2:0
Bit depth                                : 8 bits
Scan type                                : Progressive
Bits/(Pixel*Frame)                       : 0.044
Writing library                          : x264 core 129 r2230 1cffe9f




Audio #1

ID                                       : 2
Format                                   : AAC
Format/Info                              : Advanced Audio Codec
Format profile                           : LC
Codec ID                                 : A_AAC
Duration                                 : 2h 14mn
Channel count                            : 2 channels
Channel positions                        : Front: L R
Sampling rate                            : 48.0 KHz
Compression mode                         : Lossy
Title                                    : Inglés
Language                                 : English
Default                                  : No
Forced                                   : No




Audio #2

ID                                       : 3
Format                                   : MPEG Audio
Format version                           : Version 1
Format profile                           : Layer 3
Mode                                     : Joint stereo
Mode extension                           : MS Stereo
Codec ID                                 : A_MPEG/L3
Codec ID/Hint                            : MP3
Duration                                 : 2h 14mn
Bit rate mode                            : Constant
Bit rate                                 : 320 Kbps
Channel count                            : 2 channels
Sampling rate                            : 48.0 KHz
Compression mode                         : Lossy
Stream size                              : 307 MiB (15%)
Title                                    : Esp Latino
Language                                 : Spanish
Default                                  : Yes
Forced                                   : Yes




Text #1

ID                                       : 4
Format                                   : UTF-8
Codec ID                                 : S_TEXT/UTF8
Codec ID/Info                            : UTF-8 Plain Text
Title                                    : Inglés
Language                                 : English
Default                                  : No
Forced                                   : No




Text #2

ID                                       : 5
Format                                   : UTF-8
Codec ID                                 : S_TEXT/UTF8
Codec ID/Info                            : UTF-8 Plain Text
Title                                    : Español
Language                                 : Spanish
Default                                  : No
Forced                                   : No








Quiero aclarar que todas las capturas son propias, sacadas directamente de las películas, para que haya mejor claridad sobre el material a descargar






































































































Bueno, como lo comentaba les dejo el LINK de descarga por MEGA... es UNO SOLO!!!







Igualmente lo dejo para descarga con el JDownloader












Para mi, mas que los puntos, lo importante son sus comentarios para poder mejorar, con un gracias basta.










aqui les dejo mis otros aportes de la saga



Bond 1 - Dr. No

Bond 2 - FRWL (From Russia With Love ó De Rusia con Amor)

Bond 3 - Goldfinger

Bond 4 - Thunderball (Operación Trueno)

Bond 5 - YOLT (You Only Live Twice ó Solo Se Vive Dos Veces)

Bond 6 - OHMSS (On Her Majesty´s Secret Service ó Al Servicio Secreto de su Majestad)

Bond 7 - DAF (Diamonds Are Forever ó Los Diamantes Son Eternos)

Bond 8 - LALD (Live And Let Die ó Vive y Deja Morir)

Bond 9 - TMWTGG (The Man With The Golden Gun ó El Hombre del Revolver de Oro)

Bond 10 - TSWLM (The Spy Who Loved Me ó La Espía que me Amó)

Bond 11 - Moonraker

Bond 12 - FYEO (For Your Eyes Only ó Solo Para Tus Ojos)

Bond 13 - Octopussy

Bond 14 - AVTAK (A View To A Kill ó En La Mira De Los Asesinos)

Bond 15 - TLD (The Living Daylights Ó Su Nombre es Peligro)

Bond 16 - LTK (Licence To Kill ó Licencia Para Matar)

Bond 17 - Gondeneye

Bond 18 - TND (Tomorrow Never Dies ó El Mañana Nunca Muere)

Bond 19 - TWINE (The World Is Not Enough ó El Mundo No Basta)

Bond 20 - DAD (Die Another Day u Otro Día Para Morir)

Bond 21 - CR (Casino Royale)

Bond 22 - QOS (Quantum Of Solace)

Bond 23 - Skyfall






007- James Bond - 3 No Oficiales - Brrip (Mega)
60 Puntos Score: 10/10
Visitas: 4338 Favoritos: 7
Ver los usuarios que votaron...
33 Comentarios 007- James Bond - 3 No Oficiales - Brrip (Mega)
Hola amigo, tremenda paciencia hay que tener para sincronizar un audio totalmente desfasado, yo hace mucho tiempo que estoy intentando arreglar un audio latino para pegarselo a una peli y la verdad es dificilisimo, te felicito!!!
Estaba leyendo en tu post que tienes poco espacio, es en el disco duro o en la cuenta de mega? si es esto ?
Veamos la de David Niven....ojala no me aburra jajajajajajaja, gracias por el aporte,amigo
Gracias campeon !!!,
Excelente post! Muy buen trabajo, en este en todos tus post de James Bond, Eres un fanatico como yo!
Cita tamakun: Mostrar
Tomo la 3, gracias descargando
Muy bueno lo tuyo nene, no ten?
excelente aporte  
Gracias por compartir!!! Excelente y raro material, imprescindible para cualquier coleccionista.
@yerki Espero que te hayan gustado todos....

@RecDJ1507 Pues como fan, no est?
no sabia que Kim Basinger fue chica bond, muy buenas pelis
@Tekken007 no era necesario. Mira, te hicieron un copy paste a tu Post, asi tal cual copiaron lo que subiste: http://zonadicto.org/peliculas-series/224976/007-james-bond-3-no-oficiales-brrip-mega.html
Yo utilizo el audacity, si tengo un audio de una peli a 25 fps y lo quiero pasar a una de 23, lo que hago es reducir la velocidad de ese audio y queda muy bien sobretodo si es el doblaje, el audio original es m?
@chophy De las cosas que uno se viene a enterar... igual disfrutalas...

@oscar525 Nada, te merec?
Solo el audacity que es bastante completito y ni pienso complicarme mucho m?
Gracias, queda pendiente alg?
@Tekken007 Lo puedes iniciar con un par de pelis, lo guardas y despues lo vas completando de a poco, yo cada 4 o 5 aportes lo actualizo.
Un abrazo, amigo!!
Muy buenos apartes Felicidades.

Sugiero respadar las partes de las peliculas anteriores quemandolas en DVD, y asi liberes espacio en tu disco duro, de esta manera podras dar soporte y mantener tus publicaciones al 100%.

Saludos  
Cita tron7neo: Mostrar
Hola , casino royale no me carga los subtitulos , al parecer no los tiene
igual que epalada no tendras los subtitulos de casino royales, gracias
@tron7neo Hola amigo... no pude hacer copias.. justo se me da?
No importa, gracias a buscar los subtitulos, ya que estando la peli, y en buena calidad lo otro es menor, gracias Tekken
Caray que mal que llegue tarde a este post    todos los links estan caidos, estare al pendiente para ver si los pueden subir de nuevo, muchas gracias
Gracias por la serie J Bond,lamentalemente todosloslinks estan caidos  ?
@oscartinez @canelafina Amigos, estos link me los baj?
Gracias, ahora mismo la visitare

Salu2  
Para dejar un comentario Registrate! o.. eres ya usuario? Accede!