The Middle "Una Familia Modelo" Tvrip latino T 2

The Middle "Una Familia Modelo" Tvrip español latino Temporada 2


Saludos aqui les dejo la segunda temporada de esta serie, solo tengo esta y la tercera temporada en latino que subire despues
The Middle, "Una Familia Modelo",1 en México, Argentina, Venezuela, Chile, España, Perú y Colombia sólo The Middle, es una serie de televisión estadounidense de la cadena ABC, creada y producida por Eileen Heisler y DeAnn Heline.

Fue estrenada en Estados Unidos el 30 de septiembre de 2009; en México en Septiembre del 2010 tramitida por Warner Channel y el canal 5 de Televisa.2 En Latinoamerica se estrenó el 13 de julio de 2010, emitida por Warner Channel.3

La serie trata de la vida de Frankie Heck (Patricia Heaton), una mujer de mediana edad, que está casada con Mike Heck (Neil Flynn); quienes residen en el pequeño pueblo de Orson, en Indiana. Frankie y Mike son padres de tres hijos: Axl (Charlie McDermott), Sue (Eden Sher) y Brick (Atticus Shaffer). Chris Kattan hace el papel de Bob, un excéntrico amigo de Frankie, que trabaja en la misma automotora que ella.

A la fecha, la serie cuenta con 5 temporadas y 105 episodios.
La trama de la serie sitúa a los Heck, una familia de clase media, que reside en los suburbios de Orson, un pueblo ficticio del estado de Indiana, justo en el medio de Estados Unidos (de ahí el nombre de la serie).

Frankie es una mujer de mediana edad que intenta criar y sacar adelante a su familia lidiando con los problemas del día a día, con un gran sentido del humor. Debe ocuparse de las tareas del hogar, atendiendo los problemas de su neurótica hija adolescente Sue; reclamando desesperadamente la atención y el amor de su hijo, el atleta y popular Axel; y resolviendo las excentricidades de su hijo menor Brick que pasa todo el día leyendo libros (o cualquier otra cosa que contenga letras), y que además tiene serios problemas de distracción. Su mano derecha para realizar las tareas es su esposo, Mike, empleado en una cantera, que se caracteriza por ser anticuado y gran fanático de los deportes.

A su vez, Frankie debe lidiar con su empleo que detesta en Ehler Motors, una automotora de autos usados, donde también trabaja su compañero Bob, un extraño y solitario personaje, que ve en la familia Heck el modelo de familia perfecta que él nunca llegó a formar.
Capturas

Servidor mega Temporada 2  capitulos 24 audio español latino tamaño de capitulo 170 mb aproximadamernte
 General

Format                                   : AVI
Format/Info                              : Audio Video Interleave
File size                                : 171 MiB
Duration                                 : 21mn 21s
Overall bit rate                         : 1 117 Kbps
Writing application                      : VirtualDubMod 1.5.4.1 (build 2178/release)
Writing library                          : VirtualDubMod build 2178/release

Video
ID                                       : 0
Format                                   : MPEG-4 Visual
Format profile                           : Advanced [email protected]
Format settings, BVOP                    : 1
Format settings, QPel                    : No
Format settings, GMC                     : No warppoints
Format settings, Matrix                  : Custom
Codec ID                                 : XVID
Codec ID/Hint                            : XviD
Duration                                 : 21mn 21s
Bit rate                                 : 982 Kbps
Width                                    : 688 pixels
Height                                   : 400 pixels
Display aspect ratio                     : 1.720
Frame rate                               : 23.976 fps
Color space                              : YUV
Chroma subsampling                       : 4:2:0
Bit depth                                : 8 bits
Scan type                                : Progressive
Compression mode                         : Lossy
Bits/(Pixel*Frame)                       : 0.149
Stream size                              : 150 MiB (88%)
Writing library                          : XviD 1.2.1 (UTC 2008-12-04)

Audio
ID                                       : 1
Format                                   : MPEG Audio
Format version                           : Version 1
Format profile                           : Layer 3
Mode                                     : Joint stereo
Mode extension                           : MS Stereo
Codec ID                                 : 55
Codec ID/Hint                            : MP3
Duration                                 : 21mn 21s
Bit rate mode                            : Constant
Bit rate                                 : 128 Kbps
Channel(s)                               : 2 channels
Sampling rate                            : 48.0 KHz
Compression mode                         : Lossy
Stream size                              : 19.6 MiB (11%)
Alignment                                : Aligned on interleaves
Interleave, duration                     : 83 ms (2.00 video frames)
Interleave, preload duration             : 504 ms
Writing library                          : LAME3.98¢?ÛN?¼?$k




Doblaje
El doblaje de la serie es realizado en México.

El reparto principal de actores de voz está a cargo de:

Rebeca Manríquez: la voz de Franckie Heck
Pedro D'Aguillón Jr.: la voz de Mike Heck
Carlo Vázquez: la voz de Axl Heck
Leyla Rangel: la voz de Sue Heck
Luis Alfonso Mendoza: la voz de Bob
Cabe destacar también que The Middle es el primer programa transmitido con audio totalmente digital en televisión abierta en México, y también es la primera serie de TV, transmitida con doblaje de alta definición en la televisión mexicana


Lastimosamente no se porque las productoras de algunas series y peliculas o casi todas, discriminan el audio latino y no lo incluyen en los dvd o blu ray que sacan,en cambio casi todas traen portugues y he visto hasta el frances,y mientras tanto nosotros seguiremos buscando los audios latinos de nuestros programas o peliculas favoritos  hasta por debajo de las piedras
The Middle "Una Familia Modelo" Tvrip latino T 2
75 Puntos Score: 9.4/10
Visitas: 4072 Favoritos: 7
Ver los usuarios que votaron...
19 Comentarios The Middle "Una Familia Modelo" Tvrip latino T 2
Genial aporte. Tendras la temporada 1? gracias
Gracias por compartir
@pavlnieto de nada
@AriZona solo tengo la 2 y la 3 son las unicas que pasaron
hola que tal amigo, gracias por tu aportes y subiras la tercera temporada??
@pepiux si despues que tenga tiempo  
Gracias y es cierto siempre nosotros los latinos tendremos que buscar el audio latino, pero eso es culpa de la misma gente que quiere en la tv de paga que pasen las serie y peliculas subtituladas, por esa deje de pagar la tv de paga pues yo soy amante del doblaje latino, me encanta y pues en la tv de paga las ponen subtituladas. Pero gracias por el aporte!!! se garadece de antemano!  
Gracias amigo muy buena serie!!! Esperando la tercer temporada..... GRACIAS!!!!!  
gracias por el aporte, alguien sabe donde puedo encontrar la primera en latino igual?
HI QUE TAL! Gracias por compartirnos la tercera en latino amigo y esperemos que ma?
@pepiux espero que si, en el sitio oficial de canal 5 hay imagenes y sale alexa vega creo que ella salia en la primera temporada
hola!! podiras subir los lincks libres para los que no manejamos jdownloader gracias!!
gracias por el aporte Oye tendras la 1ra temporada?
Gracias Amigo
@juanw200 gracias amigo me encanta esta serie, siempre deja un mensaje cargado con buena vibra  
subiras la 3 y 4
Para dejar un comentario Registrate! o.. eres ya usuario? Accede!