The Amazing Spiderman 2: (solo audio latino)






Hola amigos .....les traigo el audio latino en versión ligera ya sin errores...en donde no se escuchan esa voz en ingles cuando Harry se esta convirtiendo en el duende verde!!!!!




INFORMACIÓN DEL AUDIO:

General

Complete name                  : F:UsersGiancarloDocumentsMiponyThe.Amazing.Spider-Man.2.Rise.of.Electro.2014.Audio.Latino.BluRay.640kbps.AC3.5.1-LAT.VAEGSThe Amazing Spiderman 2 _audio latino.aac
Format                         : ADTS
Format/Info                    : Audio Data Transport Stream
File size                      : 33.7 MiB
Overall bit rate mode          : Variable

Audio
Format                         : AAC
Format/Info                    : Advanced Audio Codec
Format version                 : Version 4
Format profile                 : HE-AAC / LC
Bit rate mode                  : Variable
Channel(s)                     : 2 channels
Channel positions              : Front: L R
Sampling rate                  : 48.0 KHz / 24.0 KHz
Compression mode               : Lossy
Stream size                    : 33.7 MiB (100%)





ENLACE DE DESCARGA:




http://www.4shared.com/file/ZHgctu26ba/The_Amazing_Spiderman_2__audio.html
The Amazing Spiderman 2: (solo audio latino)
20 Puntos Score: 10/10
Visitas: 4028 Favoritos: 1
Ver los usuarios que votaron...
4 Comentarios The Amazing Spiderman 2: (solo audio latino)
Muchas Gracias,.,.,!!!  
Para esta Version   Spider-Man 2 - El Poder de Electro.mkv
Format                                   : Matroska
Format version                           : Version 4 / Version 2
File size                                : 2.79 GiB
Duration                                 : 2h 22mn
Overall bit rate                         : 2 809 Kbps
Movie name                               : The Amazing Spider-Man 2 (2014) Web-DL 1080p Dual - Pocos Megas HD
Encoded date                             : UTC 2014-08-01 16:29:55
Writing application                      : mkvmerge v6.0.0 ('Coming Up For Air') built on Jan 20 2013 09:52:00
Writing library                          : libebml v1.3.0 + libmatroska v1.4.0

Video
ID                                       : 1
Format                                   : AVC
Format/Info                              : Advanced Video Codec
Format profile                           : [email protected]
Format settings, CABAC                   : Yes
Format settings, ReFrames                : 4 frames
Codec ID                                 : V_MPEG4/ISO/AVC
Duration                                 : 2h 22mn
Bit rate                                 : 2 049 Kbps
Width                                    : 1 916 pixels
Height                                   : 796 pixels
Display aspect ratio                     : 2.40:1
Frame rate mode                          : Constant
Frame rate                               : 23.976 fps
Color space                              : YUV
Chroma subsampling                       : 4:2:0
Bit depth                                : 8 bits
Scan type                                : Progressive
Bits/(Pixel*Frame)                       : 0.056
Stream size                              : 1.97 GiB (71%)
Title                                    : wWw.PocosMegasHD.Com
Writing library                          : x264 core 140 r2377


hay que colocarle -1000 de delay...!!! Para que quede perfecto y si es el audio corregido sin los comentarios del director en Ingles,.,!!!      
@yabo3112  Muchas gracias brother ya me estaba estresando en encontrar el delay correcto y efectivamente le puse -1000 y queda perfecto  
DISCULPEN MI IGNORANCIA.... COMO LE AGREGO EL AUDIO EN LATINO TENGO LA VERSION DE 4.30 GB Y ESTA EN AUDIO INGLES?
Para dejar un comentario Registrate! o.. eres ya usuario? Accede!