Alien I-II-III-IV ediciones especiales 720p MEGA

Alien I-II-III-IV ediciones especiales 720p bluray rip-MEGA


 Bienvenidos 

a otro de mis posts






Esta vez les comparto una de las mejores series fílmicas para mi. estos Xenomorfos son letales!! 

Espero les guste 








La saga de Alien, es una serie fílmica de ciencia ficción y terror que relata la historia de la teniente Ellen Ripley (protagonizada por Sigourney Weaver) y su lucha contra una forma de vida alienígena, conocida simplemente como «el alien» o xenomorfo. La serie comenzó en 1979 con la película de 20th Century Fox Alien, el octavo pasajero y a partir de ésta se produjeron tres secuelas, al igual que numerosos cómics, libros y videojuegos basados en la franquicia.

Relacionadas con la serie están las películas de Alien vs. Predator (Alien vs. Predator y Alien vs. Predator: Requiem), que se basan en la franquicia que hace la combinación del universo de Alien con el de la serie fílmica de Depredador.


http://es.wikipedia.org/wiki/Alien_(serie_f%C3%ADlmica)





  Capturas propias



ALIEN I-El octavo pasajero(1979)-Director´s cut  


Media INFO

General

Complete name                    Alien Director's Cut 1979.720p.BrRip.x264.mp4

Format                           : MPEG-4

Format profile                   : Base Media

Codec ID                         : isom

File size                        : 700 MiB

Duration                         : 1h 55mn

Overall bit rate                 : 844 Kbps

Encoded date                     : UTC 2012-01-10 11:07:05

Tagged date                      : UTC 2012-01-10 11:07:05


Video

ID                               : 1

Format                           : AVC

Format/Info                      : Advanced Video Codec

Format profile                   : [email protected]

Format settings, CABAC           : Yes

Format settings, ReFrames        : 4 frames

Codec ID                         : avc1

Codec ID/Info                    : Advanced Video Coding

Duration                         : 1h 55mn

Bit rate mode                    : Variable

Bit rate                         : 778 Kbps

Maximum bit rate                 : 3 723 Kbps

Width                            : 1 280 pixels

Height                           : 544 pixels

Display aspect ratio             : 2.35:1

Frame rate mode                  : Constant

Frame rate                       : 23.976 fps

Color space                      : YUV

Chroma subsampling               : 4:2:0

Bit depth                        : 8 bits

Scan type                        : Progressive

Bits/(Pixel*Frame)               : 0.047

Stream size                      : 644 MiB (92%)

Writing library                  : x264 core 116 r2074 2641b9e



Audio

ID                               : 2

Format                           : AAC

Format/Info                      : Advanced Audio Codec

Format profile                   : HE-AAC / LC

Codec ID                         : 40

Duration                         : 1h 55mn

Bit rate mode                    : Variable

Bit rate                         : 64.0 Kbps

Maximum bit rate                 : 73.5 Kbps

Channel(s)                       : 2 channels

Channel positions                : Front: L R

Sampling rate                    : 44.1 KHz / 22.05 KHz

Compression mode                 : Lossy

Stream size                      : 53.0 MiB (8%)

Encoded date                     : UTC 2012-01-10 11:09:46

Tagged date                      : UTC 2012-01-10 11:09:54








Alien II-Special Edition (1986)

Media INFO:

General

Complete name                    : Aliens Special Edition 1986.720p.BrRip.x264.mp4

Format                           : MPEG-4

Format profile                   : Base Media

Codec ID                         : isom

File size                        : 895 MiB

Duration                         : 2h 34mn

Overall bit rate                 : 810 Kbps

Encoded date                     : UTC 2012-01-10 18:16:33

Tagged date                      : UTC 2012-01-10 18:16:33


Video

ID                               : 1

Format                           : AVC

Format/Info                      : Advanced Video Codec

Format profile                   : [email protected]

Format settings, CABAC           : Yes

Format settings, ReFrames        : 4 frames

Codec ID                         : avc1

Codec ID/Info                    : Advanced Video Coding

Duration                         : 2h 34mn

Bit rate mode                    : Variable

Bit rate                         : 744 Kbps

Maximum bit rate                 : 3 691 Kbps

Width                            : 1 280 pixels

Height                           : 688 pixels

Display aspect ratio             : 1.860

Frame rate mode                  : Constant

Frame rate                       : 23.976 fps

Color space                      : YUV

Chroma subsampling               : 4:2:0

Bit depth                        : 8 bits

Scan type                        : Progressive

Bits/(Pixel*Frame)               : 0.035

Stream size                      : 822 MiB (92%)

Writing library                  : x264 core 116 r2074 2641b9e



Audio

ID                               : 2

Format                           : AAC

Format/Info                      : Advanced Audio Codec

Format profile                   : HE-AAC / LC

Codec ID                         : 40

Duration                         : 2h 34mn

Bit rate mode                    : Variable

Bit rate                         : 64.0 Kbps

Maximum bit rate                 : 71.2 Kbps

Channel(s)                       : 2 channels

Channel positions                : Front: L R

Sampling rate                    : 44.1 KHz / 22.05 KHz

Compression mode                 : Lossy

Stream size                      : 70.7 MiB (8%)

Encoded date                     : UTC 2012-01-10 18:19:55

Tagged date                      : UTC 2012-01-10 18:20:03








Alien III Special Edition (1992)

General

Complete name                    : Alien 3 Special Edition 1992.720p.BrRip.x264.YIFY.mp4

Format                           : MPEG-4

Format profile                   : Base Media

Codec ID                         : isom

File size                        : 895 MiB

Duration                         : 2h 24mn

Overall bit rate                 : 863 Kbps

Encoded date                     : UTC 2012-01-11 02:02:28

Tagged date                      : UTC 2012-01-11 02:02:28


Video

ID                               : 1

Format                           : AVC

Format/Info                      : Advanced Video Codec

Format profile                   : [email protected]

Format settings, CABAC           : Yes

Format settings, ReFrames        : 4 frames

Codec ID                         : avc1

Codec ID/Info                    : Advanced Video Coding

Duration                         : 2h 24mn

Bit rate mode                    : Variable

Bit rate                         : 797 Kbps

Maximum bit rate                 : 2 865 Kbps

Width                            : 1 280 pixels

Height                           : 544 pixels

Display aspect ratio             : 2.35:1

Frame rate mode                  : Constant

Frame rate                       : 23.976 fps

Color space                      : YUV

Chroma subsampling               : 4:2:0

Bit depth                        : 8 bits

Scan type                        : Progressive

Bits/(Pixel*Frame)               : 0.048

Stream size                      : 825 MiB (92%)

Writing library                  : x264 core 116 r2074 2641b9e

Encoded date                     : UTC 2012-01-11 02:02:28

Tagged date                      : UTC 2012-01-11 02:05:56


Audio

ID                               : 2

Format                           : AAC

Format/Info                      : Advanced Audio Codec

Format profile                   : HE-AAC / LC

Codec ID                         : 40

Duration                         : 2h 24mn

Bit rate mode                    : Variable

Bit rate                         : 64.0 Kbps

Maximum bit rate                 : 73.0 Kbps

Channel(s)                       : 2 channels

Channel positions                : Front: L R

Sampling rate                    : 44.1 KHz / 22.05 KHz

Compression mode                 : Lossy

Stream size                      : 66.3 MiB (7%)

Encoded date                     : UTC 2012-01-11 02:05:46

Tagged date                      : UTC 2012-01-11 02:05:56








Alien IV Resurrection Special Edition (1997)

General

Complete name                    : C:UsersDanielVideosAlien FilmsAlien Resurrection Special Edition (1997)Alien Resurrection Special Edition 1997.720p.BrRip.x264.YIFY.mp4

Format                           : MPEG-4

Format profile                   : Base Media

Codec ID                         : isom

File size                        : 699 MiB

Duration                         : 1h 56mn

Overall bit rate                 : 841 Kbps

Encoded date                     : UTC 2012-01-11 14:50:40

Tagged date                      : UTC 2012-01-11 14:50:40


Video

ID                               : 1

Format                           : AVC

Format/Info                      : Advanced Video Codec

Format profile                   : [email protected]

Format settings, CABAC           : Yes

Format settings, ReFrames        : 4 frames

Codec ID                         : avc1

Codec ID/Info                    : Advanced Video Coding

Duration                         : 1h 56mn

Bit rate mode                    : Variable

Bit rate                         : 775 Kbps

Maximum bit rate                 : 2 537 Kbps

Width                            : 1 280 pixels

Height                           : 544 pixels

Display aspect ratio             : 2.35:1

Frame rate mode                  : Constant

Frame rate                       : 23.976 fps

Color space                      : YUV

Chroma subsampling               : 4:2:0

Bit depth                        : 8 bits

Scan type                        : Progressive

Bits/(Pixel*Frame)               : 0.046

Stream size                      : 643 MiB (92%)

Encoded date                     : UTC 2012-01-11 14:50:40

Tagged date                      : UTC 2012-01-11 14:52:52


Audio

ID                               : 2

Format                           : AAC

Format/Info                      : Advanced Audio Codec

Format profile                   : HE-AAC / LC

Codec ID                         : 40

Duration                         : 1h 56mn

Bit rate mode                    : Variable

Bit rate                         : 64.0 Kbps

Maximum bit rate                 : 72.4 Kbps

Channel(s)                       : 2 channels

Channel positions                : Front: L R

Sampling rate                    : 44.1 KHz / 22.05 KHz

Compression mode                 : Lossy

Stream size                      : 53.2 MiB (8%)

Encoded date                     : UTC 2012-01-11 14:52:46

Tagged date                      : UTC 2012-01-11 14:52:52











dani32




 Subido a MEGA formato mp4.

Los Subtitulos van dentro del rar con extensión .srt 

Links Propios
 Comenten 
 Punteen 
 Disfruten 

Alien I-II-III-IV ediciones especiales 720p MEGA
160 Puntos Score: 8.9/10
Visitas: 6718 Favoritos: 30
Ver los usuarios que votaron...
41 Comentarios Alien I-II-III-IV ediciones especiales 720p MEGA
Muchas gracias....
Si la tienes en espa?
Linda coleccion para guardar  
gracias por compartir  
una pregunta y que de nuevo tienen las ediciones especiales, gracias.
Muchas gracias por compartir
Gracias por compartir  
@bastet1984 Suelen tener escenas eliminadas haciendo en ocasiones que la pelicula  sea mas larga o tambien otras defirencias, si les pones atenci?
Buenas Peliculas, lastima que tengo problemas para descargar con Jdownloader.  
excelente muy buenas peliculas y en sus ediciones especiales mejor muchas gracias
Me actualizo la 2 y 3, gracias...
Que bien loco excelente post graciass  
Genial! gracias por el aporte!
gracias por el aporte amigo, podrias subirlo este aporte en dvdrip latino seria estupendo
Si alguien puede pasar los llinks por privado se agradece. No me funciona el maldito Jdownlander. Gracias los pasen o no.  
@Tinta_Blue @peluvio  usen el MiPony es mas liviano que el JD   @MishaMZC  lo siento solo en Idioma original brrip @wilugo @simon42 @zitelolz01 @tamakun gracias por pasar
muy buen post... igual iba a preguntar que tienen de especial, pero mejor las bajo ya!! gracias mil...
esta interesante. si estubiera en latino los bajaria. buen post igual!!
a mi me encanta que estee con los idiomas originales  
Una gran saga y con buena calidad de imagen.Gracias por compartir
Gracias por la Info.    
Gracias,  sobre todo por el idioma original, bajando
uff gracias hace mucho que no las veo  
descargando amigo , gracias !
Hey amigo excelente aporte!!!!
Te dejo +10
Excelente aporte, gracias  
excelente aporte no tengo el rango para dar puntos pero si va a fav!  solo que la parte 4 de la ?
Amigo yo uso "mi pony" y no me sirve el enlace encriptado para jdownloader, me pasarias los enlaces por MP ? Excelente post, buena calidad todo perfecto.
No importa, olvidalo
tremendo aporte, muchas gracias!!!!
Gracias,muy buen aporte!
bajadas y vista las 4    
nunca las habia visto  
@cesar2kx espero las disfrutaras tanto como yo.. son genieales... gracias por pasar y por lo puntos
Ya no funcionan los links!
Para dejar un comentario Registrate! o.. eres ya usuario? Accede!