The Doors - Live At The Bowl '68 (2012)(Wv)(Mg)








Información:


Formato: Wavpack (image + .cue) + Log

Año: 2012

Scans: En el rar



Lista de canciones:


01. Show Start/Intro 00:19

02. When The Music's Over 12:52

03. Alabama Song (Whisky Bar) 01:33

04. Back Door Man 02:33

05. Five To One 01:29

06. Back Door Man (Reprise) 01:22

07. The Wasp (Texas Radio And The Big Beat) 01:52

08. Hello I Love You 02:14

09. Moonlight Drive 03:21

10. Horse Latitudes 01:08

11. A Little Game 01:20

12. The Hill Dweller 02:22

13. Spanish Caravan 03:04

14. Hey, What Would You Guys Like To Hear? 00:40

15. Wake Up! 01:30

16. Light My Fire (Segue) 09:32

17. Light My Fire (Reprise) 00:38

18. The Unknown Soldier 04:43

19. The End (Segue) 01:02

20. The End 17:31




Log: 

Exact Audio Copy V1.0 beta 3 from 29. August 2011

EAC extraction logfile from 3. November 2012, 20:31

The Doors / Live At The Bowl '68 [Electra 8122797120]

Used drive  : Optiarc DVD RW AD-7200S   Adapter: 5  ID: 1

Read mode               : Secure
Utilize accurate stream : Yes
Defeat audio cache      : Yes
Make use of C2 pointers : No

Read offset correction                      : 48
Overread into Lead-In and Lead-Out          : No
Fill up missing offset samples with silence : Yes
Delete leading and trailing silent blocks   : No
Null samples used in CRC calculations       : Yes
Used interface                              : Installed external ASPI interface

Used output format              : User Defined Encoder
Selected bitrate                : 1024 kBit/s
Quality                         : High
Add ID3 tag                     : No
Command line compressor         : D:Program Files (x86)Exact Audio Copywavpack.exe
Additional command line options : -hlmx2 %source% %dest%


TOC of the extracted CD

     Track |   Start  |  Length  | Start sector | End sector 
    ---------------------------------------------------------
        1  |  0:00.00 |  0:18.44 |         0    |     1393   
        2  |  0:18.44 | 12:52.01 |      1394    |    59294   
        3  | 13:10.45 |  1:33.11 |     59295    |    66280   
        4  | 14:43.56 |  2:33.29 |     66281    |    77784   
        5  | 17:17.10 |  1:28.68 |     77785    |    84452   
        6  | 18:46.03 |  1:22.02 |     84453    |    90604   
        7  | 20:08.05 |  1:51.46 |     90605    |    98975   
        8  | 21:59.51 |  2:14.18 |     98976    |   109043   
        9  | 24:13.69 |  3:20.40 |    109044    |   124083   
       10  | 27:34.34 |  1:07.62 |    124084    |   129170   
       11  | 28:42.21 |  1:20.21 |    129171    |   135191   
       12  | 30:02.42 |  2:21.63 |    135192    |   145829   
       13  | 32:24.30 |  3:04.01 |    145830    |   159630   
       14  | 35:28.31 |  0:40.11 |    159631    |   162641   
       15  | 36:08.42 |  1:30.28 |    162642    |   169419   
       16  | 37:38.70 |  9:32.08 |    169420    |   212327   
       17  | 47:11.03 |  0:38.27 |    212328    |   215204   
       18  | 47:49.30 |  4:42.51 |    215205    |   236405   
       19  | 52:32.06 |  1:01.42 |    236406    |   241022   
       20  | 53:33.48 | 17:31.01 |    241023    |   319848   


Range status and errors

Selected range

     Filename D:eacThe DoorsThe Doors - Live At The Bowl '68 [Electra 8122797120].wav

     Peak level 100.0 %
     Extraction speed 4.4 X
     Range quality 100.0 %
     Test CRC 1045629B
     Copy CRC 1045629B
     Copy OK

No errors occurred

 
AccurateRip summary
 
Track  1  not present in database
Track  2  not present in database
Track  3  not present in database
Track  4  not present in database
Track  5  not present in database
Track  6  not present in database
Track  7  not present in database
Track  8  not present in database
Track  9  not present in database
Track 10  not present in database
Track 11  not present in database
Track 12  not present in database
Track 13  not present in database
Track 14  not present in database
Track 15  not present in database
Track 16  not present in database
Track 17  not present in database
Track 18  not present in database
Track 19  not present in database
Track 20  not present in database
 
None of the tracks are present in the AccurateRip database

End of status report

---- CUETools DB Plugin V2.1.3

[CTDB TOCID: tPoAkVIQ_pZdQR6.TeidTEwTmfY-] found, Submit result: tPoAkVIQ_pZdQR6.TeidTEwTmfY- has been confirmed
[4e39b073] (2/2) Accurately ripped


==== Log checksum 140683E9D7ECF0D4E886C24F1F9ABD4D780E33229D7995E05E5C6A6A568C1062 ====






Contraseña: ellocoboni




The Doors - Live At The Bowl '68 (2012)(Wv)(Mg)
50 Puntos Score: 8.3/10
Visitas: 823 Favoritos: 2
Ver los usuarios que votaron...
6 Comentarios The Doors - Live At The Bowl '68 (2012)(Wv)(Mg)
agunte the doors!!! + 5 no tengo mas jijiji
@chuslitos
Si  .
Gracias por pasar y por los puntos    
Muy bueno, gracias.
@Faria
Gracias a ti por pasar y por los puntos  
Gracias loco, por ti pude grabar toda la discografia de esta banda en FLAC en un DVD.
@Chuchiwi7
Me alegra que te sirvieran  
Para dejar un comentario Registrate! o.. eres ya usuario? Accede!