Cream - Disraeli Gears (1967)(Flac)(Mg)








Información:


Formato: Flac (image + .cue) + Log

Año: 1967 (Reedición 2013)

Covers: En el rar



Lista de canciones:


Stereo Album

01 Strange Brew

02 Sunshine Of Your Love

03 World Of Pain

04 Dance The Night Away

05 Blue Condition

06 Tales Of Brave Ulysses

07 Swlabr

08 We're Going Wrong

09 Outside Woman Blues

10 Take It Back

11 Mother's Lament

Bonus Tracks

12 Lawdy Mama (Version 1)

13 Lawdy Mama (Version 2)

14 Blue Condition (Alternate Version)


Mono Album

15 Strange Brew

16 Sunshine Of Your Love

17 World Of Pain

18 Dance The Night Away

19 Blue Condition

20 Tales Of Brave Ulysses

21 Swlabr

22 We're Going Wrong

23 Outside Woman Blues

24 Take It Back

25 Mother's Lament

Bonus Tracks

26 Lawdy Mama (Version 1)

27 Lawdy Mama (Version 2)

28 Blue Condition (Alternate Version)




Log: 

Exact Audio Copy V1.0 beta 3 from 29. August 2011

EAC extraction logfile from 25. January 2014, 21:48

Cream / Disraeli Gears Platinum PT-SHM

Used drive  : PLEXTOR BD-R  PX-B950SA   Adapter: 6  ID: 0

Read mode               : Secure
Utilize accurate stream : Yes
Defeat audio cache      : Yes
Make use of C2 pointers : No

Read offset correction                      : 6
Overread into Lead-In and Lead-Out          : No
Fill up missing offset samples with silence : Yes
Delete leading and trailing silent blocks   : No
Null samples used in CRC calculations       : Yes
Used interface                              : Native Win32 interface for Win NT & 2000

Used output format : Internal WAV Routines
Sample format      : 44.100 Hz; 16 Bit; Stereo


TOC of the extracted CD

     Track |   Start  |  Length  | Start sector | End sector 
    ---------------------------------------------------------
        1  |  0:00.00 |  2:47.35 |         0    |    12559   
        2  |  2:47.35 |  4:11.47 |     12560    |    31431   
        3  |  6:59.07 |  3:03.03 |     31432    |    45159   
        4  | 10:02.10 |  3:35.27 |     45160    |    61311   
        5  | 13:37.37 |  3:31.23 |     61312    |    77159   
        6  | 17:08.60 |  2:47.35 |     77160    |    89719   
        7  | 19:56.20 |  2:32.40 |     89720    |   101159   
        8  | 22:28.60 |  3:27.47 |    101160    |   116731   
        9  | 25:56.32 |  2:25.58 |    116732    |   127664   
       10  | 28:22.15 |  3:06.45 |    127665    |   141659   
       11  | 31:28.60 |  1:47.47 |    141660    |   149731   
       12  | 33:16.32 |  2:02.30 |    149732    |   158911   
       13  | 35:18.62 |  2:47.48 |    158912    |   171484   
       14  | 38:06.35 |  3:11.67 |    171485    |   185876   
       15  | 41:18.27 |  2:47.38 |    185877    |   198439   
       16  | 44:05.65 |  4:11.67 |    198440    |   217331   
       17  | 48:17.57 |  3:06.48 |    217332    |   231329   
       18  | 51:24.30 |  3:35.30 |    231330    |   247484   
       19  | 54:59.60 |  3:31.25 |    247485    |   263334   
       20  | 58:31.10 |  2:52.00 |    263335    |   276234   
       21  | 61:23.10 |  2:32.52 |    276235    |   287686   
       22  | 63:55.62 |  3:27.68 |    287687    |   303279   
       23  | 67:23.55 |  2:25.52 |    303280    |   314206   
       24  | 69:49.32 |  3:07.73 |    314207    |   328304   
       25  | 72:57.30 |  1:48.50 |    328305    |   336454   
       26  | 74:46.05 |  2:02.50 |    336455    |   345654   
       27  | 76:48.55 |  2:47.02 |    345655    |   358181   
       28  | 79:35.57 |  3:13.58 |    358182    |   372714   


Range status and errors

Selected range

     Filename C:UsersMeijinDesktopLossless Galaxy ALLexxessCream1967 Disraeli Gears (Mini LP PT-SHM Set Universal Japan 2013)Cream - Disraeli Gears Platinum PT-SHM.wav

     Peak level 98.0 %
     Extraction speed 9.0 X
     Range quality 100.0 %
     Test CRC B54D4F58
     Copy CRC B54D4F58
     Copy OK

No errors occurred

 
AccurateRip summary
 
Track  1  accurately ripped (confidence 1)
Track  2  accurately ripped (confidence 1)
Track  3  accurately ripped (confidence 1)
Track  4  accurately ripped (confidence 1)
Track  5  accurately ripped (confidence 1)
Track  6  accurately ripped (confidence 1)
Track  7  accurately ripped (confidence 1)
Track  8  accurately ripped (confidence 1)
Track  9  accurately ripped (confidence 1)
Track 10  accurately ripped (confidence 1)
Track 11  accurately ripped (confidence 1)
Track 12  accurately ripped (confidence 1)
Track 13  accurately ripped (confidence 1)
Track 14  accurately ripped (confidence 1)
Track 15  accurately ripped (confidence 1)
Track 16  accurately ripped (confidence 1)
Track 17  accurately ripped (confidence 1)
Track 18  accurately ripped (confidence 1)
Track 19  accurately ripped (confidence 1)
Track 20  accurately ripped (confidence 1)
Track 21  accurately ripped (confidence 1)
Track 22  accurately ripped (confidence 1)
Track 23  accurately ripped (confidence 1)
Track 24  accurately ripped (confidence 1)
Track 25  accurately ripped (confidence 1)
Track 26  accurately ripped (confidence 1)
Track 27  accurately ripped (confidence 1)
Track 28  accurately ripped (confidence 1)
 
All tracks accurately ripped

End of status report

==== Log checksum 3E8F979F52957419D034DC6104554CA7ED3BF26450A88EF96C5B72E47005AF5F ====






Contraseña: ellocoboni



Cream - Disraeli Gears (1967)(Flac)(Mg)
16 Puntos Score: 8/10
Visitas: 603 Favoritos: 0
Ver los usuarios que votaron...
0 Comentarios Cream - Disraeli Gears (1967)(Flac)(Mg)
Este post no tiene comentarios. Sea el primero!
Para dejar un comentario Registrate! o.. eres ya usuario? Accede!