Santana (1969)(Wav)(Mg)








Información:


Formato: Wav (image + .cue) + Log

Año: 1969

Covers: En el rar



Lista de canciones


01. Waiting (4:06)

02. Evil Ways (3:58)

03. Shades Of Time (3:13)

04. Savor (2:45)

05. Jin-Go-Lo-Ba (4:22)

06. Persuasion (2:37)

07. Treat (4:44)

08. You Just Don't Care (4:37)

09. Soul Sacrifice (6:36)




Log:

Exact Audio Copy V1.0 beta 1 from 15. November 2010

EAC extraction logfile from 20. July 2012, 23:35

Santana / Santana

Used drive  : SAMSUNG DVD-ROM SD-616E   Adapter: 3  ID: 0

Read mode               : Secure
Utilize accurate stream : Yes
Defeat audio cache      : Yes
Make use of C2 pointers : No

Read offset correction                      : 12
Overread into Lead-In and Lead-Out          : No
Fill up missing offset samples with silence : Yes
Delete leading and trailing silent blocks   : No
Null samples used in CRC calculations       : Yes
Used interface                              : Native Win32 interface for Win NT & 2000

Used output format : Internal WAV Routines
Sample format      : 44.100 Hz; 16 Bit; Stereo


TOC of the extracted CD

     Track |   Start  |  Length  | Start sector | End sector 
    ---------------------------------------------------------
        1  |  0:00.00 |  4:06.05 |         0    |    18454   
        2  |  4:06.05 |  3:58.40 |     18455    |    36344   
        3  |  8:04.45 |  3:13.37 |     36345    |    50856   
        4  | 11:18.07 |  2:45.08 |     50857    |    63239   
        5  | 14:03.15 |  4:22.65 |     63240    |    82954   
        6  | 18:26.05 |  2:37.55 |     82955    |    94784   
        7  | 21:03.60 |  4:44.40 |     94785    |   116124   
        8  | 25:48.25 |  4:37.35 |    116125    |   136934   
        9  | 30:25.60 |  6:37.00 |    136935    |   166709   


Range status and errors

Selected range

     Filename C:Documents and SettingsBoryaDesktop6saHtaHa9Santana - Santana.wav

     Peak level 100.0 %
     Extraction speed 0.4 X
     Range quality 100.0 %
     Copy CRC 54FDADA4
     Copy OK

No errors occurred

 
AccurateRip summary
 
Track  1  accurately ripped (confidence 5)
Track  2  accurately ripped (confidence 5)
Track  3  accurately ripped (confidence 5)
Track  4  accurately ripped (confidence 5)
Track  5  accurately ripped (confidence 5)
Track  6  accurately ripped (confidence 5)
Track  7  accurately ripped (confidence 5)
Track  8  accurately ripped (confidence 5)
Track  9  accurately ripped (confidence 5)
 
All tracks accurately ripped

End of status report






Contraseña: ellocoboni




Santana (1969)(Wav)(Mg)
5 Puntos Score: 5/10
Visitas: 581 Favoritos: 1
Ver los usuarios que votaron...
0 Comentarios Santana (1969)(Wav)(Mg)
Este post no tiene comentarios. Sea el primero!
Para dejar un comentario Registrate! o.. eres ya usuario? Accede!