El Color Púrpura (1985) - Brrip Dual (Mega)





Hola amigos de Identi, en esta ocasión traigo una película excelente, un señor CLASICO, un drama con un trasfondo bastante fuerte, una realidad dura de una época difícil. Danny Glover y Whoopi Goldberg...


Creo de verdad que es una buena calidad (bastante aceptable ), descargada de Torrent y audio latino pegado de otra película DVDRip que encontré después de años de buscarla en la red...  




Espero que la disfruten.... 








1985 The Color Purple



"El Color Púrpura"










SINOPSIS



El color púrpura (en inglés, The Color Purple) es una película dirigida por Steven Spielberg en 1985, basada en la novela homónima de Alice Walker ganadora del Premio Pulitzer en 1983.

La historia se centra en la vida de Celie, una joven muchacha afrodescendiente, a principios del siglo XX. Celie tiene 14 años y está embarazada de su padre. Partiendo de este momento, se cuenta su difícil existencia durante los siguientes treinta años. El padre de Celie la vende a un hombre que la maltrata tanto física como psicológicamente y la tiene esclavizada durante la mayor parte de su vida, en los que es separada de su hermana Nettie, que es llevada a África. Pese a haber sido nominada a 11 premios de la Academia, no consiguió ninguno.



(Tomado de Wikipedia)








MEDIA INFO


Esa es la ficha técnica sacada de la película, se informa formato, peso, calidad, duración, Bit rate y demás datos que son necesarios para conocer la calidad real de la misma, para aquellos siempre solicitan datos puntuales:


General

Format                                   : Matroska
Format version                           : Version 4 / Version 2
File size                                : 1.54 GiB
Duration                                 : 2h 33mn
Overall bit rate                         : 1 434 Kbps
Encoded date                             : UTC 2014-04-24 14:33:12
Writing application                      : mkvmerge v6.9.1 ('Blue Panther') 64bit built on Apr 18 2014 18:23:38
Writing library                          : libebml v1.3.0 + libmatroska v1.4.1

Video
ID                                       : 1
Format                                   : AVC
Format/Info                              : Advanced Video Codec
Format profile                           : [email protected]
Format settings, CABAC                   : Yes
Format settings, ReFrames                : 4 frames
Codec ID                                 : V_MPEG4/ISO/AVC
Duration                                 : 2h 33mn
Bit rate                                 : 985 Kbps
Width                                    : 1 280 pixels
Height                                   : 720 pixels
Display aspect ratio                     : 16:9
Frame rate mode                          : Constant
Frame rate                               : 23.976 fps
Color space                              : YUV
Chroma subsampling                       : 4:2:0
Bit depth                                : 8 bits
Scan type                                : Progressive
Bits/(Pixel*Frame)                       : 0.045
Stream size                              : 1.03 GiB (67%)
Writing library                          : x264 core 140 r2377 1ca7bb9




Audio #1

ID                                       : 2
Format                                   : MPEG Audio
Format version                           : Version 1
Format profile                           : Layer 3
Mode                                     : Joint stereo
Mode extension                           : MS Stereo
Codec ID                                 : A_MPEG/L3
Codec ID/Hint                            : MP3
Duration                                 : 2h 33mn
Bit rate mode                            : Constant
Bit rate                                 : 128 Kbps
Channel count                            : 2 channels
Sampling rate                            : 48.0 KHz
Compression mode                         : Lossy
Stream size                              : 141 MiB (9%)
Title                                    : Español Latino
Writing library                          : LAME3.99r
Encoding settings                        : -m j -V 4 -q 2 -lowpass 17 -b 128
Language                                 : Spanish
Default                                  : Yes
Forced                                   : Yes




Audio #2

ID                                       : 3
Format                                   : MPEG Audio
Format version                           : Version 1
Format profile                           : Layer 3
Mode                                     : Joint stereo
Mode extension                           : MS Stereo
Codec ID                                 : A_MPEG/L3
Codec ID/Hint                            : MP3
Duration                                 : 2h 33mn
Bit rate mode                            : Constant
Bit rate                                 : 320 Kbps
Channel count                            : 2 channels
Sampling rate                            : 48.0 KHz
Compression mode                         : Lossy
Delay relative to video                  : 1s 0ms
Stream size                              : 351 MiB (22%)
Title                                    : Ingles
Writing library                          : LAME3.99.5
Language                                 : English
Default                                  : No
Forced                                   : No




Text #1

ID                                       : 4
Format                                   : UTF-8
Codec ID                                 : S_TEXT/UTF8
Codec ID/Info                            : UTF-8 Plain Text
Title                                    : Español
Language                                 : Spanish
Default                                  : No
Forced                                   : No




Text #2

ID                                       : 5
Format                                   : UTF-8
Codec ID                                 : S_TEXT/UTF8
Codec ID/Info                            : UTF-8 Plain Text
Title                                    : Ingles
Language                                 : English
Default                                  : No
Forced                                   : No



Text #2


ID                                       : 5
Format                                   : UTF-8
Codec ID                                 : S_TEXT/UTF8
Codec ID/Info                            : UTF-8 Plain Text
Title                                    : Español
Language                                 : Spanish
Default                                  : No
Forced                                   : No





CAPTURAS


Quiero aclarar que todas las capturas son propias, sacadas directamente de las películas, para que haya mejor claridad sobre el material a descargar

































































































Bueno, como lo comentaba les dejo el LINK de descarga por MEGA... es UNO SOLO!!!







Igualmente lo dejo para descarga con el JDownloader












Para mi, mas que los puntos, lo 


importante son sus comentarios 


para poder mejorar, con un 


gracias basta..














El Color Púrpura (1985) - Brrip Dual (Mega)
118 Puntos Score: 9.8/10
Visitas: 3684 Favoritos: 10
Ver los usuarios que votaron...
37 Comentarios El Color Púrpura (1985) - Brrip Dual (Mega)
una super pelicula la verdad
wuauuuu amigo que post muchas gracias +10 sigue asi
@PirateFan Es excelente!!!... Gracias por pasar y por tu comentario!!!

@damian17 Muchas gracias amigo por tu comentario y sobretodo por el apoyo a mi trabajo...ah y x los puntines!!!! Jajaja ... Espero que la disfrutes!!!  
Genial, que casualidad ayer la estaba buscando, cosas de la vida, gracias :-)  +10
Excelente no tengo puntos pero te doy Gracias +1000
@Pijuy Super... apenas para que la puedas disfrutar en buena calidad y Dual audio!!!! ... Gracias por pasar, por comentar y por los puntos!!!  
@ranota No te preocupes amigo... Tu agradecimiento lo vale!!!  
@chitio2010 Por nada... Y si, se pasa de buena... La pel?
buy buena gracias
De casualidad no tendras la pelicula "La socia principal" tambien de Whoopi, esa comedia me encanto y no eh podido encontrarla por ningun lado.
Esta noche la veo, muchas gracias. Por aportes como este es que amo a IDENTI.
Muchisimas Gracias, ya tenia mucho buscando esta pelicula +10
yo men toda lapelicula trae la leyenda TEKKEN007???
@FMSFabio Por nada amigo!!!

@gedesh Lamentablemente no amigo... intentar?
GRACIAS!!!! por aclarar las dudas... A disfrutar la pelicula... SALUDOS!!!!
gran aporte se te agradece
@jonasdf2 Por nada.. que la disfrutes!!!!
gracias gracias
gracias no la podia encontrar por ningun lado agradecido  
Gran Pelicula ya la tengo en blu ray pero se agradece ese tipo de aportes...
@AsherB Mil gracias a ti por comentar y por los puntos!!!

@JUANFRY Espero que la disfrutes!!!

@yoelcat uy que envidia de la buena tenerla en esa calidad tan brava... Gracias por pasar y por el comentario!!!

 
ah no, te pasaste?
@Arnamitia Se pasa de buena la peli.... Mil gracias por pasar a mi post y por los punticos...   ... que la disfrutes mucho !!!  
Muy buen aporte amigo, muchas gracias !!!  
@chanchin27 Gracias a ti amigo por pasar y comentar... Y por los puntines... Que la disfrutes!!!  
descarganding!
Muy buena peli, amigo, muchas gracias  
@CrlsV  

@akula1997  Por nada amigo, que disfrutes esta excelente peli  y gracias por los puntos!!!!
Peliculon!!!! Gracias Broo
@takom Por nada amigo... excelente peli!!!!  
hola amigo esta es una pelicula que buscaba hace mucho si podes te agradeceria volverla a subir porque me aparecce que ya no esta gracias
hola podrias resubir la peli o solo el audio latino.
excelente lastima que este caido, seria posible que la vuelvas a subir, gracias.
link caido , vuelvela a subir por favor
Para dejar un comentario Registrate! o.. eres ya usuario? Accede!