Santana - Abraxas (1970)(Flac)(Mg)








Información:


Formato: Flac (image + .cue) + Log

Año: 1970

Covers: En el rar



Lista de canciones:


01. Singing Winds, Crying Beasts (4:50)

02. Black Magic Woman/Gypsy Queen (5:19)

03. Oye Como Va (4:19)

04. Incident At Neshabur (5:00)

05. Se A Cabo (2:52)

06. Mother's Daughter (4:28)

07. Samba Pa Ti (4:47)

08. Hope You're Feeling Better (4:17)

09. El Nicoya (1:39)

10. Se A Cabo (Live) (3:47)

11. Toussaint L'Overture (Live) (4:52)

12. Black Magic Woman/Gypsy Queen (Live) (4:57)




Log:

Exact Audio Copy V1.0 beta 3 from 29. August 2011

EAC extraction logfile from 24. March 2014, 14:04

Santana / Abraxas

Used drive  : SAMSUNG DVD-ROM SD-616E   Adapter: 3  ID: 0

Read mode               : Secure
Utilize accurate stream : Yes
Defeat audio cache      : Yes
Make use of C2 pointers : No

Read offset correction                      : 12
Overread into Lead-In and Lead-Out          : No
Fill up missing offset samples with silence : Yes
Delete leading and trailing silent blocks   : No
Null samples used in CRC calculations       : Yes
Used interface                              : Native Win32 interface for Win NT & 2000

Used output format              : User Defined Encoder
Selected bitrate                : 768 kBit/s
Quality                         : High
Add ID3 tag                     : No
Command line compressor         : C:Program FilesExact Audio CopyFLACFLAC.EXE
Additional command line options : -6 -V -T "ARTIST=%artist%" -T "TITLE=%title%" -T "ALBUM=%albumtitle%" -T "DATE=%year%" -T "TRACKNUMBER=%tracknr%" -T "GENRE=%genre%" -T "COMMENT=%comment%" -T "BAND=%albuminterpret%" -T "ALBUMARTIST=%albuminterpret%" -T "COMPOSER=%composer%" %haslyrics%--tag-from-file=LYRICS="%lyricsfile%"%haslyrics% -T "DISCNUMBER=%cdnumber%" -T "TOTALDISCS=%totalcds%" -T "TOTALTRACKS=%numtracks%" %hascover%--picture="%coverfile%"%hascover% %source% -o %dest%


TOC of the extracted CD

     Track |   Start  |  Length  | Start sector | End sector 
    ---------------------------------------------------------
        1  |  0:00.00 |  4:50.70 |         0    |    21819   
        2  |  4:50.70 |  5:19.57 |     21820    |    45801   
        3  | 10:10.52 |  4:19.35 |     45802    |    65261   
        4  | 14:30.12 |  5:00.45 |     65262    |    87806   
        5  | 19:30.57 |  2:52.33 |     87807    |   100739   
        6  | 22:23.15 |  4:28.02 |    100740    |   120841   
        7  | 26:51.17 |  4:47.55 |    120842    |   142421   
        8  | 31:38.72 |  4:17.15 |    142422    |   161711   
        9  | 35:56.12 |  1:39.60 |    161712    |   169196   
       10  | 37:35.72 |  3:47.35 |    169197    |   186256   
       11  | 41:23.32 |  4:52.10 |    186257    |   208166   
       12  | 46:15.42 |  4:57.05 |    208167    |   230446   


Range status and errors

Selected range

     Filename C:Documents and SettingsBoryaDesktopsanabraSantana - Abraxas.wav

     Peak level 100.0 %
     Extraction speed 3.3 X
     Range quality 100.0 %
     Test CRC 9863CA7E
     Copy CRC 9863CA7E
     Copy OK

No errors occurred

 
AccurateRip summary
 
Track  1  accurately ripped (confidence 13)
Track  2  accurately ripped (confidence 13)
Track  3  accurately ripped (confidence 13)
Track  4  accurately ripped (confidence 13)
Track  5  accurately ripped (confidence 13)
Track  6  accurately ripped (confidence 13)
Track  7  accurately ripped (confidence 13)
Track  8  accurately ripped (confidence 13)
Track  9  accurately ripped (confidence 13)
Track 10  accurately ripped (confidence 13)
Track 11  accurately ripped (confidence 13)
Track 12  accurately ripped (confidence 13)
 
All tracks accurately ripped

End of status report

==== Log checksum 40B8B612DB4AF2E974A0C13D38C7E7AF3FFA8BBE64223DDB359960B5F9DC8862 ====






Contraseña: ellocoboni




Santana - Abraxas (1970)(Flac)(Mg)
15 Puntos Score: 7.5/10
Visitas: 607 Favoritos: 0
Ver los usuarios que votaron...
3 Comentarios Santana - Abraxas (1970)(Flac)(Mg)
+ 5 q me quedan, para apoyar la subida en FLAC
@LAdrian
Gracias por pasar y por los puntos  
Gracias Por el aporte, Bajando.
Para dejar un comentario Registrate! o.. eres ya usuario? Accede!