Oops.. Este post tiene los enlaces eliminados!

Identi revisa las denuncias de los usuarios en busca de enlaces eliminados que no dejan descargar los archivos, este mensaje te informa que este post que estas viendo tiene los enlaces eliminados.

Usa el Buscador

Por favor, te recomendamos que uses el buscador para encontrar más alternativas.

Gabriel 2007 DVDrip latino MEGA

  • Categoría: Reciclaje
  • Publicado hace más de 2 años
Gabriel 2007 DVDrip latino









FICHA TECNICA

Título: GabrielTítulo 
Original: Gabriel
Nacionalidad: AUSTRALIA
Director: Shane Abbess
Guión: Shane Abbess & Matt Hylton Todd
Música: Brian Cachia
Fotografía: Peter Holland
Productora: HILT Productions
Reparto: Andy Whitfield, Dwaine Stevenson, Samantha Noble, Erika Heynatz, Michael Piccirilli, Harry Pavlidis, Jack Campbell, Kevin Copeland, Brendan Clearkin, Matt Hylton Todd, Valentino del Toro, Goran D. Kleut, Amy Mathews, Christian Clark, Johan Earl, Amber Gokken, Denai Gracie, Richard Huggett, Az Jackson, Aaron Scully, Paul Wincheste
rGénero: Fantástico, Acción & Terror 

SINOPSIS
Entre el cielo y la tierra descansa el destino de la humanidad El ángel oscuro Samael, sume en la corrupción a toda una ciudad y sólo el ángel Gabriel podrá detenerle. Cuando la victoria parecía suya, Samael jugará con el pasado de Gabriel, cuyo conocimiento podría destruirle para siempre.

INFORMACION 
Calidad: dvdrip
Peso: 1.17 gb
Duracion: 99 min
Formato: AVI
dioma: Español Latino
Subtitulos: No



info detallada

General
Complete name                            : Gabriel 2007 Accion Suspenso.avi
Format                                   : AVI
Format/Info                              : Audio Video Interleave
File size                                : 1.17 GiB
Duration                                 : 1h 53mn
Overall bit rate                         : 1 475 Kbps
Writing application                      : VirtualDubMod 1.5.10.2 (build 2540/release)
Writing library                          : VirtualDubMod build 2540/release

Video
ID                                       : 0
Format                                   : MPEG-4 Visual
Format profile                           : Advanced [email protected]
Format settings, BVOP                    : 2
Format settings, QPel                    : No
Format settings, GMC                     : No warppoints
Format settings, Matrix                  : Default (H.263)
Muxing mode                              : Packed bitstream
Codec ID                                 : XVID
Codec ID/Hint                            : XviD
Duration                                 : 1h 53mn
Bit rate                                 : 1 274 Kbps
Width                                    : 640 pixels
Height                                   : 272 pixels
Display aspect ratio                     : 2.35:1
Frame rate                               : 23.976 fps
Original frame rate                      : 25.000 fps
Color space                              : YUV
Chroma subsampling                       : 4:2:0
Bit depth                                : 8 bits
Scan type                                : Progressive
Compression mode                         : Lossy
Bits/(Pixel*Frame)                       : 0.305
Stream size                              : 1.01 GiB (86%)
Writing library                          : XviD 1.1.2 (UTC 2006-11-01)

Audio
ID                                       : 1
Format                                   : AC-3
Format/Info                              : Audio Coding 3
Mode extension                           : CM (complete main)
Format settings, Endianness              : Big
Codec ID                                 : 2000
Duration                                 : 1h 53mn
Bit rate mode                            : Constant
Bit rate                                 : 192 Kbps
Channel(s)                               : 2 channels
Channel positions                        : Front: L R
Sampling rate                            : 48.0 KHz
Bit depth                                : 16 bits
Compression mode                         : Lossy
Delay relative to video                  : 12ms
Stream size                              : 156 MiB (13%)
Alignment                                : Split accross interleaves
Interleave, duration                     : 42 ms (1.00 video frame)
Interleave, preload duration             : 500 ms

Comprimida con winrar, tiene registro de recuperación.  










yorvas2


Gabriel 2007 DVDrip latino MEGA
10 Puntos Score: 10/10
Visitas: 3063 Favoritos: 2
Ver los usuarios que votaron...
6 Comentarios Gabriel 2007 DVDrip latino MEGA
De lo que se entera uno, este actor es Spartacus, mismo que ya falleci?
Cita kalel89: Mostrar
No la encontr?
Cita kalel89: Mostrar
Gracias por el aporte
Para dejar un comentario Registrate! o.. eres ya usuario? Accede!