Oops.. Este post tiene los enlaces eliminados!

Identi revisa las denuncias de los usuarios en busca de enlaces eliminados que no dejan descargar los archivos, este mensaje te informa que este post que estas viendo tiene los enlaces eliminados.

Usa el Buscador

Por favor, te recomendamos que uses el buscador para encontrar más alternativas.

RoboCop (2014) HD {8.32GB)

  • Categoría: Reciclaje
  • Publicado hace más de 2 años

RoboCop (2014) HD




INFORMACION


(SINOPSIS)


Corre el año 2028 y la empresa multinacional OmniCorp ocupa el primer lugar en cuanto a tecnología robótica en el mundo. Durante años sus drones militares han ganado guerras para Estados Unidos -significando a la vez miles de millones de dólares para OmniCorp.

Ahora OmniCorp quiere expandir su negocio trayendo esta peligrosa tecnología de regreso a casa, y usándola en las calles para ganar la batalla contra el crimen. La corporación ve una oportunidad de oro cuando Alex Murphy, un policía y padre de familia que hace todo lo posible para detener la alta criminalidad y corrupción en Detroit, cae gravemente herido en cumplimiento de su deber, entonces la perversa compañía utiliza su extraordinaria tecnología para producir una unidad policíaca parte-hombre, parte-máquina, a la que llaman RoboCop.

Con esto prevén vender sus RoboCops a cada ciudad del país, y ganar miles de millones de dólares más para sus accionistas. Pero no contaban con una cosa: dentro de la máquina todavía hay un hombre, y él está en busca de justicia. 

Al embutirlo en un montón de maquinaria, el policía vuelve como un poderoso cyborg, un organismo compuesto de elementos orgánicos y partes tecnológicas, con sorprendentes nuevas habilidades, pero con dificultades existenciales con las que un hombre común nunca ha tenido que enfrentarse, pues tiene terribles memorias que lo atormentan. 


(VIDEO)

Format                                   : Matroska
Format version                           : Version 4 / Version 2
File size                                : 8.32 GiB
Overall bit rate                         : 10.1 Mbps

Duration                                 : 1h 57mn
Bit rate                                 : 8 167 Kbps
Width                                    : 1 920 pixels
Height                                   : 800 pixels
Display aspect ratio                     : 2.40:1
Frame rate mode                          : Constant
Frame rate                               : 23.976 fps

(AUDIO)


Audio #1
Format                                   : AC-3
Format/Info                              : Audio Coding 3
Codec ID                                 : A_AC3
Duration                                 : 1h 57mn
Bit rate mode                            : Constant
Bit rate                                 : 448 Kbps
Channel(s)                               : 6 channels
Channel positions                        : Front: L C R, Side: L R, LFE
Stream size                              : 376 MiB (4%)
Language                                 : Spanish

Audio #2
Format                                   : DTS
Format/Info                              : Digital Theater Systems
Codec ID                                 : A_DTS
Duration                                 : 1h 57mn
Bit rate mode                            : Constant
Bit rate                                 : 1 509 Kbps
Channel(s)                               : 6 channels
Channel positions                        : Front: L C R, Side: L R, LFE
Stream size                              : 1.24 GiB (15%)

Language                                 : English



CAPTURAS
(PROPIAS)













link de descarga


password

dexterbaru







P.D.

ALGUIEN SABE QUE PUEDO HACER PARA QUE ME DUREN MAS LA LINKS, EN EL ANTERIOR POST LOS BORRARON AL SEGUNDO DÍA DE 

SUBIRLOS.


y esto es respecto al mundial (mexico vs holanda) 

me parecio gracioso 

RoboCop (2014) HD {8.32GB)
60 Puntos Score: 10/10
Visitas: 2626 Favoritos: 5
Ver los usuarios que votaron...
24 Comentarios RoboCop (2014) HD {8.32GB)
Para que los links duren m?
micro hd con 8 gb? algo mal hay en la codificacion.
Cita DAMIAN32: Mostrar

Es verdad MicroHD de 8Gb??, no tiene sentido..
@DAMIAN32 no, el microhd se refiere a una peque?
gracias   si es cierto yo tenia una sony led full hd 32p no tenia ningun problema pero la cambie por una de 47p hay ya reconoces la verdadera calidad  
ESTO ES LO QUE SALE EN iNTERNET Y LO QUE YO ENTINDO POR MicroHD. SERIA INTERESANTE UQE ALGUIEN MAS SABIDO ACLARARA EL TEMA

El formato MicroHD (mHD) es un un archivo de v?
excelente hagala sigas subiendo asi te felicito,   gracias
Cita Demencia_F: Mostrar
cuando la termine de bajar veo que tal comparada con la que ya tengo de 2.5 gb 1080p latino mkv , mientras te dejo diez por el esfuerzo .
Cita DAMIAN32: Mostrar
@DAMIAN32 gracias por los puntos y perd?
Espectacular buena peli y muy buena calidad
jajaja si u vieras colocado hd 8g o hd 1080 no habr?
Cita _Atlas_: Mostrar
@_Atlas_ es cierto gracias por comentar @ferboy007  gracias por los puntos
Cita ferboy007: Mostrar
@DAMIAN32 gracias lo tendre en cuenta para el proximo
hermano excelente calidad sera posible que me compartas alguna pagina para bajar en esa misma calidad gracias
@cloud13 buena esta wrzko pero las tienes que descargar en el lapso de una semana por que elimina los link y esta torrentz ahi pones el nombre de la pelicula y te aparecen muchas opciones, espero y te sirvan
Cita DexterBaru: Mostrar
hermano excelente pagina, mil gracias, si tienes otra ala mano me lo haces saber no impor ta que pese 8 G mil gracias
Cita DexterBaru: Mostrar
Los links est?
Para dejar un comentario Registrate! o.. eres ya usuario? Accede!