300: Rise of an Empire [8.96GB] HD

"300: Rise of an Empire"







SINOPSIS

La Reina Gorgo le cuenta a los espartanos sobre la Batalla de Maratón, en la que el rey Dario I de Persia fue asesinado por el general ateniense Temistocles. El hijo de Dario , Jerjes I, presencia la muerte de su padre, pero se le recomienda que no tome represalias. La comandante naval de Darío, Artemisia, afirma que las últimas palabras de Darío eran de hecho un desafío y envía a Jerjes a un viaje a través del desierto. Jerjes finalmente llega a la cueva donde habita un hombre sabio, y se baña en sus aguas, emergiendo como el "Rey Dios". Regresa a Persia y declara la guerra a Grecia.
Mientras las fuerzas de Jerjes avanzan hacia las Termópilas, Temístocles se reúne con el consejo y les convence para que le proporcione una flota para atacar a los persas en el mar. Temístocles luego viaja a Esparta para pedirle ayuda al rey Leónidas, pero es informado por Dilios que Leónidas está consultando al Oráculo, y Gorgo se resiste a aliarse con Atenas. Temístocles después se reúne con su viejo amigo Escilias, que se infiltró en las tropas persas y descubrió que Artemisia nació griega, pero desertó a Persia porque su familia fue violada y asesinada por hoplitas griegos y fue tomada como esclava sexual para los griegos, que la dieron por muerta en las calles. Ella fue rescatada y adoptada por los persas. Su sed de venganza llamó la atención del rey Darío y la hizo una comandante naval después de que ella mató a muchos de sus enemigos.
Temístocles lidera a sus hombres, que incluyen a Escilias, Calisto (el hijo de Escilias) y la mano derecha de Temístocles, Esquiloal Mar Egeo. Ellos arremeten con sus barcos los naves persas, matando a varios soldados antes de retirarse. Al día siguiente, los griegos empujan una de las naves persas a una grieta, donde se encalla, y cargan contra las otras naves, matando a más persas. Impresionada por las habilidades de Temístocles, Artemisia lo trae a su barco donde tienen relaciones sexuales mientras ella trata de convencerlo de unirse a los persas como su segundo al mando. Él se niega, lo que la convence de hacerle a un lado y jurar venganza.
Los persas derraman alquitrán en el mar y envían atacantes suicidas a nadar y subir a los barcos griegos con sus bombas de fuego. Artemisia y sus hombres disparan flechas ardientes y antorchas para encender el alquitrán, pero Temístocles logra matar a uno de los soldados, que cae en el alquitrán llevando una antorcha, provocando que los barcos de ambos bandos exploten. Temístocles es arrojado al mar por una explosión y casi se ahoga antes de ser rescatado por Calisto, y se queda al lado de Escilias mientras sucumbe a sus heridas. Creyendo que Temístocles está muerto, Artemisia y sus fuerzas se retiran.
Temístocles descubre que Leónidas y los 300 han sido asesinados por Jerjes y regresa a Atenas para enfrentar a Efialtes, el traidor espartano deformado, que revela que Jerjes planea atacar Atenas, y se lamenta por sus acciones, acogiendo a la muerte. Temístocles le perdona en su lugar, para que pueda advertirle a Jerjes que las fuerzas griegas se reúnen en Salamina, y luego visita a Gorgo en Esparta, mientras ella llora a Leónidas para pedir su ayuda, pero ella está muy abrumada por la pena. Antes de irse, Temístocles devuelve la espada de Leónidas, que tomó de Efialtes, que había robado anteriormente, e insta a Gorgo a vengar a Leónidas.
En Atenas, el ejército de Jerjes está asolado cuando Efialtes llega para entregar el mensaje de Temístocles. Al enterarse de que está vivo, Artemisia se va para preparar a sus tropas para la batalla, contra los deseos de Jerjes. Los barcos griegos chocan contra las naves persas, y los dos ejércitos luchan, comenzando la decisiva Batalla de Salamina. Temístocles y Artemisia pelean, y Temístocles la vence.
Gorgo había estado narrando la historia a su ejército espartano, y los lleva a ayudar en la batalla junto a otros aliados griegos, superando en número a los persas. Temístocles insta a Artemisia a rendirse, pero ella trata de matarlo y es apuñalada en el estómago. Con su último aliento, ella ve a Jerjes dándole la espalda mientras él se retira. Temístocles y Gorgo se toman un momento para reconocer en silencio la alianza del uno y el otro mientras el resto del ejército de Artemisia avanza. Entonces los dos cargan contra los persas con el resto de los espartanos detrás de ellos.

INFO VIDEO:
Format                                   : Matroska
Format version                           : Version 4 / Version 2
File size                                : 7.98 GiB
Duration                                 : 1h 42mn
Overall bit rate                         : 11.1 Mbps

Video
ID                                       : 3
Format                                   : AVC
Format/Info                              : Advanced Video Codec
Format profile                           : [email protected]
Format settings, CABAC                   : Yes
Format settings, ReFrames                : 5 frames
Codec ID                                 : V_MPEG4/ISO/AVC
Duration                                 : 1h 42mn
Bit rate                                 : 9 169 Kbps
Width                                    : 1 920 pixels
Height                                   : 800 pixels
Display aspect ratio                     : 2.40:1
Frame rate mode                          : Constant
Frame rate                               : 23.976 fps
Color space                              : YUV
Chroma subsampling                       : 4:2:0
Bit depth                                : 8 bits
Scan type                                : Progressive
Bits/(Pixel*Frame)                       : 0.249
Stream size                              : 6.42 GiB (80%)

Language                                 :Español, English
Default                                  : Yes
Forced                                   : No

Audio #1
ID                                       : 1
Format                                   : AC-3
Format/Info                              : Audio Coding 3
Mode extension                           : CM (complete main)
Format settings, Endianness              : Big
Codec ID                                 : A_AC3
Duration                                 : 1h 42mn
Bit rate mode                            : Constant
Bit rate                                 : 448 Kbps
Channel(s)                               : 6 channels
Channel positions                        : Front: L C R, Side: L R, LFE
Sampling rate                            : 48.0 KHz
Bit depth                                : 16 bits
Compression mode                         : Lossy
Stream size                              : 329 MiB (4%)
Language                                 : Spanish
Default                                  : Yes
Forced                                   : No

Audio #2
ID                                       : 4
Format                                   : DTS
Format/Info                              : Digital Theater Systems
Mode                                     : 16
Format settings, Endianness              : Big
Codec ID                                 : A_DTS
Duration                                 : 1h 42mn
Bit rate mode                            : Constant
Bit rate                                 : 1 509 Kbps
Channel(s)                               : 6 channels
Channel positions                        : Front: L C R, Side: L R, LFE
Sampling rate                            : 48.0 KHz
Bit depth                                : 24 bits
Compression mode                         : Lossy
Stream size                              : 1.08 GiB (14%)
Language                                 : English
Default                                  : No

Forced                                   : No



Capturas
(Propias)








Link Descarga

(Propios)



password

dexterbaru






300: Rise of an Empire [8.96GB] HD
60 Puntos Score: 10/10
Visitas: 4399 Favoritos: 7
Ver los usuarios que votaron...
29 Comentarios 300: Rise of an Empire [8.96GB] HD
muy bueno te pasaste!
8GB? medio que esta mal ripeado.
gracias que mal ripeado ja ja eso es calidad a full    
tiene subtitulos latinos y la caldad se ve en Bit rate: 9 169 Kbps ,Bits/(Pixel*Frame) : 0.249  
@ericprydz @rayo83 exacto es calidad full  y el video es de Public espero y les guste la calidad
+10 veremos la calidad si es verdad
Por la resoluci?
@lobo001 800 por el estilo de grabacion solo  hay una cuantas peliculas grabadas en full ejemplos titanes del pacifico los vengadores ya que ahi no usan la lineas negras
Cita DexterBaru: Mostrar
A lo que voy es que con la cantidad de Gb, y no tener una resoluci?
amigo si asi subieras todas tu peliculas con ese peso o mas de gb seria exelente gracias  
esque se llama microhd 1920x800 se puede hacer por 1080 pero seria mentira esa debe de pesar depende la pelicula  y esta minimo 16 gigas  
Cita 007jaden: Mostrar
seria excelente
@007jaden @rayo83  tratare, la siguiente  es robocop
Te bajaron los todos los links y me falt?
@carmatope si deja empezar a subirlos
Cita DexterBaru: Mostrar

Te quedo muy agradecido
gracias la esperaremos
podes subir los ultimos 3 link que estan caidos'
@crissama @rayo83 @DOYKAMI @carmatope  listo ya estan resibidos, perdonen la tardansa pero tuve problemas al subirlos
@DexterBaru
Gracias por tu tiempo y energ?
@depredad0r por supuesto, si tienes mas dudas no dudes en preguntar
Recontraexcelentisimo aporte!!! muy buen trabajo y mucho esfuerzo de tu parte que todos debemos agradecerte!! ma?
Gracias. te sigo!
tengo un problema descargue ya dos veces el archivo numero 5 y me sigue dando error fichero da?
Para dejar un comentario Registrate! o.. eres ya usuario? Accede!