American Dad - Temporada 8 Capítulo 1 Es-Dual 1080

American Dad - Temporada 8 Capítulo 1 Es-Dual 1080






Video

ID                                       : 1
Format                                   : AVC
Format/Info                              : Advanced Video Codec
Format profile                           : [email protected]
Format settings, CABAC                   : Yes
Format settings, ReFrames                : 6 frames
Codec ID                                 : V_MPEG4/ISO/AVC
Duration                                 : 21mn 39s
Bit rate                                 : 1 420 Kbps
Width                                    : 1 912 pixels
Height                                   : 1 072 pixels
Display aspect ratio                     : 16:9
Frame rate mode                          : Constant
Frame rate                               : 23.976 fps
Color space                              : YUV
Chroma subsampling                       : 4:2:0
Bit depth                                : 8 bits
Scan type                                : Progressive
Bits/(Pixel*Frame)                       : 0.029
Stream size                              : 220 MiB (80%)

Audio #1

ID                                       : 2
Format                                   : AC-3
Format/Info                              : Audio Coding 3
Mode extension                           : CM (complete main)
Format settings, Endianness              : Big
Codec ID                                 : A_AC3
Duration                                 : 21mn 39s
Bit rate mode                            : Constant
Bit rate                                 : 160 Kbps
Channel(s)                               : 2 channels
Channel positions                        : Front: L R
Sampling rate                            : 48.0 KHz
Bit depth                                : 16 bits
Compression mode                         : Lossy
Delay relative to video                  : -42ms
Stream size                              : 24.8 MiB (9%)
Title                                    : Castellano
Language                                 : Spanish
Default                                  : Yes
Forced                                   : No

Audio #2
ID                                       : 3
Format                                   : AC-3
Format/Info                              : Audio Coding 3
Mode extension                           : CM (complete main)
Format settings, Endianness              : Big
Codec ID                                 : A_AC3
Duration                                 : 21mn 39s
Bit rate mode                            : Constant
Bit rate                                 : 160 Kbps
Channel(s)                               : 6 channels
Channel positions                        : Front: L C R, Side: L R, LFE
Sampling rate                            : 48.0 KHz
Bit depth                                : 16 bits
Compression mode                         : Lossy
Delay relative to video                  : -42ms
Stream size                              : 24.8 MiB (9%)
Title                                    : Inglés
Language                                 : English
Default                                  : No
Forced                                   : No


Pass:
www.identi.li
American Dad - Temporada 8 Capítulo 1 Es-Dual 1080
0 Puntos Score: 0/10
Visitas: 1785 Favoritos: 1
5 Comentarios American Dad - Temporada 8 Capítulo 1 Es-Dual 1080
muchas gracias,no me esperava que la sacaran tan pronto ojala que saquen tambien las ultimas de futurama  
no se puede ver en mi tv por sub ni en la ps3
@yamakazy no se , yo lo veo en mi p?
saves si ha salido el capirulo 4 ?
yo lo he sacado de otro foro , donde tu estas tb , jejejeje
Para dejar un comentario Registrate! o.. eres ya usuario? Accede!