Crash Canyon - Temporada 1 Capítulo 19 (ESPAÑOL)

Crash Canyon - Temporada 1 Capítulo 19 (ESPAÑOL)





Video

ID                                       : 0
Format                                   : MPEG-4 Visual
Format settings, BVOP                    : 2
Format settings, QPel                    : No
Format settings, GMC                     : No warppoints
Format settings, Matrix                  : Default (H.263)
Muxing mode                              : Packed bitstream
Codec ID                                 : DX50
Codec ID/Hint                            : DivX 5
Duration                                 : 22mn 23s
Bit rate                                 : 1 284 Kbps
Width                                    : 624 pixels
Height                                   : 352 pixels
Display aspect ratio                     : 16:9
Frame rate                               : 23.976 fps
Color space                              : YUV
Chroma subsampling                       : 4:2:0
Bit depth                                : 8 bits
Scan type                                : Progressive
Compression mode                         : Lossy
Bits/(Pixel*Frame)                       : 0.244
Stream size                              : 206 MiB (90%)
Title                                    : Video
Writing library                          : DivX 3013

Audio
ID                                       : 1
Format                                   : MPEG Audio
Format version                           : Version 1
Format profile                           : Layer 3
Codec ID                                 : 55
Codec ID/Hint                            : MP3
Duration                                 : 22mn 23s
Bit rate mode                            : Constant
Bit rate                                 : 128 Kbps
Channel(s)                               : 2 channels
Sampling rate                            : 48.0 KHz
Compression mode                         : Lossy
Stream size                              : 20.5 MiB (9%)
Alignment                                : Split accross

Audio:
Español

Enlace de descarga:


Pass:
www.identi.li
Crash Canyon - Temporada 1 Capítulo 19 (ESPAÑOL)
10 Puntos Score: 10/10
Visitas: 650 Favoritos: 0
Ver los usuarios que votaron...
0 Comentarios Crash Canyon - Temporada 1 Capítulo 19 (ESPAÑOL)
Este post no tiene comentarios. Sea el primero!
Para dejar un comentario Registrate! o.. eres ya usuario? Accede!