He-Man 80s Temporada TODAS! UpdatedDec03,2015

GRACIAS a "nightcrawler23" de tododvdfull que tenía el corazón para subir la serie completa en DVD9 y a través de MEGA.

He-Man 80's Esp/Ing .mkv H.265 DVDrip [MEGA]



Listo Para: Dec 2015
Format: .mkv (HEVC H265)
Audio: Ing y Esp
Episodios: 130
Tamaño aproximado para cada episodio: 215MB-230MB
Tamaño total: 28.3 GB


General


Format                                   : Matroska
Format version                           : Version 2
File size                                : 223 MiB
Duration                                 : 21mn 29s
Overall bit rate                         : 1 450 Kbps
Movie name                               : HEMAN_S2V1_D3.Title8
Encoded date                             : UTC 2015-11-25 18:14:30
Writing application                      : DVDFab 9.2.0.9
Writing library                          : libebml v0.7.8 + libmatroska v0.8.1



Video

ID                                       : 1
Format                                   : HEVC H.265
Format/Info                              : High Efficiency Video Coding
Format profile                           : [email protected]@Main
Codec ID                                 : V_MPEGH/ISO/HEVC
Duration                                 : 21mn 29s
Bit rate                                 : 1 037 Kbps
Width                                    : 640 pixels
Height                                   : 480 pixels
Display aspect ratio                     : 4:3

Frame rate mode                          : Constant
Frame rate                               : 29.970 fps
Color space                              : YUV
Chroma subsampling                       : 4:2:0
Bit depth                                : 8 bits
Bits/(Pixel*Frame)                       : 0.113
Stream size                              : 159 MiB (72%)
Default                                  : Yes
Forced                                   : No
Color range                              : Limited
Color primaries                          : BT.601 NTSC
Transfer characteristics                 : BT.709
Matrix coefficients                      : BT.601



Audio #1

ID                                       : 2
Format                                   : AC-3
Format/Info                              : Audio Coding 3
Mode extension                           : CM (complete main)
Format settings, Endianness              : Big
Codec ID                                 : A_AC3
Duration                                 : 21mn 29s
Bit rate mode                            : Constant
Bit rate                                 : 192 Kbps
Channel(s)                               : 2 channels
Channel positions                        : Front: L R
Sampling rate                            : 48.0 KHz
Compression mode                         : Lossy
Stream size                              : 29.5 MiB (13%)
Language                                 : English
Default                                  : Yes
Forced                                   : No



Audio #2

ID                                       : 3
Format                                   : AC-3
Format/Info                              : Audio Coding 3
Mode extension                           : CM (complete main)
Format settings, Endianness              : Big
Codec ID                                 : A_AC3
Duration                                 : 21mn 29s
Bit rate mode                            : Constant
Bit rate                                 : 192 Kbps
Channel(s)                               : 2 channels
Channel positions                        : Front: L R
Sampling rate                            : 48.0 KHz
Compression mode                         : Lossy
Stream size                              : 29.5 MiB (13%)
Language                                 : Spanish
Default                                  : No
Forced                                   : No




Season 1 Volume 1



Disco1:

Disco2:

Disco3:

Disco4:

Disco5:

Season 1 Volume 2



Disco1

Disco2:

Disco3:

Disco4:

Disco5:


Season 2 Volume 1



Disco1:

Disco2:

Disco3:

Disco4:

Disco5:



Season 2 Volume 2



Disco1:

Disco2:

Disco3:

Disco4:

Disco5:





DOWNLOAD
via Smartphone




He-Man 80s Temporada TODAS! UpdatedDec03,2015
35 Puntos Score: 8.8/10
Visitas: 1988 Favoritos: 5
Ver los usuarios que votaron...
13 Comentarios He-Man 80s Temporada TODAS! UpdatedDec03,2015
muy buena calidad se ve que es. Buen aporte
Por favor editar el link de descarga y remplazarlo por el largo, el que posteaste me lleva a mi carpeta, es muy com?
Muchas  gracias. Gran aporte.
bro la temp 1?  
Temporada 1 vol1 y vol2/ Temporada 2 vol1 no las tengo. pero estoy esperando para un especial en ebay para comprar los 3 ?
amigo lo mejor hasta ahorita en calidad, solo una duda si las tendras vdd??? (temporada 1)
Excelente aporte.
@miguelakag  muy buen aporte ojal?
GRACIAAAAAAAAAAAAS!!!!!!!!!!!!!!!!!!!!!!!!!!!!!!!!!!!!!!!!!
Con calidad exelente!
GENIO, IDOLO, MAESTRO!!!! del UNIVERSO!!!!!!!!!!!!!!
GRACIAS! seba175
Para dejar un comentario Registrate! o.. eres ya usuario? Accede!