Pelicula La Ola (Die Welle) español Mega 1 link

HOLA AQUI LES DEJO ESTA EXCELENTE PELICULA ALEMANA, SOLO LA ENCONTRE CON AUDIO EN CASTELLANO PERO AUN ASI ES BUENISIMA!!!


SINOPSIS


Alemania hoy. Durante la semana de proyectos, al profesor de instituto Rainer Wenger (Jürgen Vogel) se le ocurre la idea de un experimento que explique a sus alumnos cuál es el funcionamiento de los gobiernos totalitarios. Comienza así un experimento que acabará con resultados trágicos.
 
 En apenas unos días, lo que comienza con una serie de ideas inocuas como la disciplina y el sentimiento de comunidad se va convirtiendo en un movimiento real: LA OLA. Al tercer día, los alumnos comienza a aislarse y amenazarse entre sí.
 
 Cuando el conflicto finalmente rompe en violencia durante un partido de water polo, el profesor decide no seguir con el experimento, pero para entonces es demasiado tarde, LA OLA se ha descontrolado...





General
Complete name                  : G:La ola- Die Welle .mp4
Format                         : MPEG-4
Format profile                 : Base Media / Version 2
Codec ID                       : mp42
File size                      : 944 MiB
Duration                       : 1h 37mn
Overall bit rate mode          : Variable
Overall bit rate               : 1 353 Kbps
Encoded date                   : UTC 2013-11-26 19:25:53
Tagged date                    : UTC 2013-11-26 19:25:53
gsst                           : 0
gstd                           : 5849453
gssd                           : BC9AE300BMH1386654980535660
gshh                           : r8---sn-ug5onuxajv-jwne.googlevideo.com
Xtra                           : WM/MediaClassPrimaryID

Video
ID                             : 1
Format                         : AVC
Format/Info                    : Advanced Video Codec
Format profile                 : [email protected]
Format settings, CABAC         : Yes
Format settings, ReFrames      : 1 frame
Codec ID                       : avc1
Codec ID/Info                  : Advanced Video Coding
Duration                       : 1h 37mn
Bit rate                       : 1 159 Kbps
Maximum bit rate               : 5 054 Kbps
Width                          : 1 280 pixels
Height                         : 720 pixels
Display aspect ratio           : 16:9
Frame rate mode                : Constant
Frame rate                     : 15.000 fps
Color space                    : YUV
Chroma subsampling             : 4:2:0
Bit depth                      : 8 bits
Scan type                      : Progressive
Bits/(Pixel*Frame)             : 0.084
Stream size                    : 808 MiB (86%)
Tagged date                    : UTC 2013-11-26 19:27:46

Audio
ID                             : 2
Format                         : AAC
Format/Info                    : Advanced Audio Codec
Format profile                 : LC
Codec ID                       : 40
Duration                       : 1h 37mn
Bit rate mode                  : Variable
Bit rate                       : 192 Kbps
Maximum bit rate               : 202 Kbps
Channel(s)                     : 2 channels
Channel positions              : Front: L R
Sampling rate                  : 44.1 KHz
Compression mode               : Lossy
Stream size                    : 134 MiB (14%)
Title                          : IsoMedia File Produced by Google, 5-11-2011
Encoded date                   : UTC 2013-11-26 19:27:02
Tagged date                    : UTC 2013-11-26 19:27:46


IMAGENES










TRAILER




LINK

https://mega.co.nz/#!vJcghY5B!3ilEtgka-7ADq0Q_SjWuqaZb2Yj13voVwT-zw-8KDc8
Pelicula La Ola (Die Welle) español Mega 1 link
16 Puntos Score: 8/10
Visitas: 25073 Favoritos: 5
Ver los usuarios que votaron...
15 Comentarios Pelicula La Ola (Die Welle) español Mega 1 link
yo la tengo subtitulada
Cita asdfghjk1: Mostrar
jajaja, yo la anduve buscando hace tiempo con dual audio pero nunca la encontre  
@asdfghjk1 Gracias por los puntos  
es latino o espa?
muy buena.  Ve la versi?
Cita ramiro23: Mostrar
@Shadowkira lo que te pregunto es si es espa?
No se puede conectar

Firefox no puede establecer una conexi?
resubila por favor y avisa !!!!!!!!!!!!!!!!!! gracias  
Cita alfre1964: Mostrar
Hola, no se cual sea el problema, todo parece estar bien
Aqui te paso el link https://mega.co.nz/#!vJcghY5B!3ilEtgka-7ADq0Q_SjWuqaZb2Yj13voVwT-zw-8KDc8
Cita alfre1964: Mostrar
Cita Shadowkira: Mostrar
Buena peli me la recomendaron asi que a bajarla. Gracias
como lo descomprimo?
Para dejar un comentario Registrate! o.. eres ya usuario? Accede!