300 Rise [HDRip 720p][Latino][2014]




La historia se ambienta en el año 490 a.C., unos diez años antes de la batalla de las Termópilas. Las tropas atenienses deben contrarrestar los ataques del Imperio Persa, que al mando del rey Dario I, están ganando terreno. La gran contienda entre estos dos pueblos se está gestando.
No muy lejos de Atenas, a 42 km al norte, Maratón es uno de los últimos bastiones que protejen a la gran Atenas. Los persas tienen un ejército multitudinario, en cambio los atenienses son solo un puñado de hombres, que tendrán que solicitar ayuda a los espartanos.



Título: 300: El origen de un imperio
Título original: 300: Rise of an Empire
Dirección: Noam Murro
País: Estados Unidos
Año: 2013
Fecha de estreno: 07/03/2014
Duración: 102 min
Género: Drama, Bélico, Acción
Calificación: No recomendada para menores de 16 años
Reparto: Sullivan Stapleton, Eva Green, Rodrigo Santoro, Jack O'Connell, Andrew Tiernan, Ashraf Barhom, Callan Mulvey, Lena Headey, David Wenham, Andrew Pleavin
Web: www.300themovie.com
Distribuidora: Warner Bros. Pictures
Productora: Atmosphere Entertainment MM, Hollywood Gang Productions, Cruel & Unusual Films

General
Format                                   : MPEG-4
Format profile                           : Base Media / Version 2
Codec ID                                 : mp42
File size                                : 975 MiB
Duration                                 : 1h 42mn
Overall bit rate mode                    : Variable
Overall bit rate                         : 1 328 Kbps
Encoded date                             : UTC 2014-06-03 13:09:35
Tagged date                              : UTC 2014-06-03 13:30:01
Writing application                      : DVDFab

Video
ID                                       : 1
Format                                   : AVC
Format/Info                              : Advanced Video Codec
Format profile                           : [email protected]
Format settings, CABAC                   : Yes
Format settings, ReFrames                : 1 frame
Format settings, GOP                     : M=1, N=24
Codec ID                                 : avc1
Codec ID/Info                            : Advanced Video Coding
Duration                                 : 1h 42mn
Bit rate mode                            : Variable
Bit rate                                 : 1 197 Kbps
Width                                    : 1 280 pixels
Height                                   : 532 pixels
Display aspect ratio                     : 2.40:1
Frame rate mode                          : Constant
Frame rate                               : 24.000 fps
Color space                              : YUV
Chroma subsampling                       : 4:2:0
Bit depth                                : 8 bits
Scan type                                : Progressive
Bits/(Pixel*Frame)                       : 0.073
Stream size                              : 879 MiB (90%)
Writing library                          : x264 core
Encoded date                             : UTC 2014-06-03 13:09:35
Tagged date                              : UTC 2014-06-03 13:29:57
Color primaries                          : BT.709-5, BT.1361, IEC 61966-2-4, SMPTE RP177
Transfer characteristics                 : BT.709-5, BT.1361
Matrix coefficients                      : BT.709-5, BT.1361, IEC 61966-2-4 709, SMPTE RP177

Audio
ID                                       : 2
Format                                   : AAC
Format/Info                              : Advanced Audio Codec
Format profile                           : LC
Codec ID                                 : 40
Duration                                 : 1h 42mn
Bit rate mode                            : Variable
Bit rate                                 : 128 Kbps
Maximum bit rate                         : 156 Kbps
Channel(s)                               : 2 channels
Channel positions                        : Front: L R
Sampling rate                            : 48.0 KHz
Compression mode                         : Lossy
Stream size                              : 93.9 MiB (10%)
Encoded date                             : UTC 2014-06-03 13:09:35
Tagged date                              : UTC 2014-06-03 13:29:54






http://www20.zippyshare.com/v/52589820/file.html
http://www6.zippyshare.com/v/60525417/file.html
http://www1.zippyshare.com/v/46209856/file.html
http://www69.zippyshare.com/v/71264061/file.html
http://www50.zippyshare.com/v/24614942/file.html
300 Rise [HDRip 720p][Latino][2014]
27 Puntos Score: 6.8/10
Visitas: 3372 Favoritos: 8
Ver los usuarios que votaron...
3 Comentarios 300 Rise [HDRip 720p][Latino][2014]
buen aporte, veremos qu?
si es en latino seria exelente  
gracias se ve muy bien y esta en audiolatino   +10
Para dejar un comentario Registrate! o.. eres ya usuario? Accede!