Malefica [TSSCR][Castellano][2014]




Todo el mundo conoce el cuento de 'La bella durmiente'. Pero nadie hasta ahora se ha preocupado en investigar las auténticas razones por las que Maléfica (Angelina Jolie) maldijo a la princesa Aurora (Elle Fanning). Esta película pretende hacer un poco de justicia con uno de los personajes más odiados de la historia del cine. Porque resulta que Maléfica también tenía su corazoncito, y se lo destrozaron de una manera cruel. Al menos eso piensa ella. Será mejor que veamos la película y saquemos nuestras propias conclusiones.



Título: Maléfica
Título original: Maleficent
Dirección: Robert Stromberg
País: Estados Unidos
Año: 2014
Fecha de estreno: 30/05/2014
Duración: 135 min
Género: Drama, Aventuras, Acción
Calificación: No recomendada para menores de 7 años
Reparto: Elle Fanning, Angelina Jolie, Juno Temple, Sharlto Copley, Miranda Richardson, Imelda Staunton, Sam Riley, Peter Capaldi, Jamie Sives, Lesley Manville
Web: Disney Movies
Distribuidora: Walt Disney Pictures
Productora: Moving Picture Company (MPC), Roth Films

General
Format                                   : MPEG-4
Format profile                           : Base Media
Codec ID                                 : isom
File size                                : 527 MiB
Duration                                 : 1h 27mn
Overall bit rate mode                    : Variable
Overall bit rate                         : 843 Kbps
Writing application                      : Lavf54.63.104

Video
ID                                       : 1
Format                                   : AVC
Format/Info                              : Advanced Video Codec
Format profile                           : [email protected]
Format settings, CABAC                   : Yes
Format settings, ReFrames                : 4 frames
Codec ID                                 : avc1
Codec ID/Info                            : Advanced Video Coding
Duration                                 : 1h 27mn
Bit rate                                 : 750 Kbps
Width                                    : 720 pixels
Height                                   : 304 pixels
Display aspect ratio                     : 2.35:1
Frame rate mode                          : Constant
Frame rate                               : 23.976 fps
Color space                              : YUV
Chroma subsampling                       : 4:2:0
Bit depth                                : 8 bits
Scan type                                : Progressive
Bits/(Pixel*Frame)                       : 0.143
Stream size                              : 473 MiB (90%)
Writing library                          : x264 core 120 r2151 a3f4407
Encoding settings                        : cabac=1 / ref=3 / deblock=1:0:0 / analyse=0x3:0x113 / me=hex / subme=7 / psy=1 / psy_rd=1.00:0.00 / mixed_ref=1 / me_range=16 / chroma_me=1 / trellis=1 / 8x8dct=1 / cqm=0 / deadzone=21,11 / fast_pskip=1 / chroma_qp_offset=-2 / threads=16 / sliced_threads=0 / nr=0 / decimate=1 / interlaced=0 / bluray_compat=0 / constrained_intra=0 / bframes=3 / b_pyramid=2 / b_adapt=1 / b_bias=0 / direct=1 / weightb=1 / open_gop=0 / weightp=2 / keyint=25 / keyint_min=2 / scenecut=40 / intra_refresh=0 / rc_lookahead=25 / rc=abr / mbtree=1 / bitrate=750 / ratetol=1.0 / qcomp=0.60 / qpmin=0 / qpmax=69 / qpstep=4 / ip_ratio=1.40 / aq=1:1.00

Audio
ID                                       : 2
Format                                   : AAC
Format/Info                              : Advanced Audio Codec
Format profile                           : LC
Codec ID                                 : 40
Duration                                 : 1h 27mn
Duration_LastFrame                       : -27ms
Bit rate mode                            : Variable
Bit rate                                 : 82.7 Kbps
Maximum bit rate                         : 128 Kbps
Channel(s)                               : 2 channels
Channel positions                        : Front: L R
Sampling rate                            : 24.0 KHz
Compression mode                         : Lossy
Stream size                              : 51.8 MiB (10%)






http://www34.zippyshare.com/v/44800256/file.html
http://www29.zippyshare.com/v/86477085/file.html
http://www32.zippyshare.com/v/62800147/file.html
Malefica [TSSCR][Castellano][2014]
5 Puntos Score: 5/10
Visitas: 8906 Favoritos: 1
Ver los usuarios que votaron...
2 Comentarios Malefica [TSSCR][Castellano][2014]
hola amigo no la tienes en Espa?
Gracias, bajando
Para dejar un comentario Registrate! o.. eres ya usuario? Accede!