Only Lovers Left Alive [DVDSCR][VOSE][2014]




Profundamente deprimido, un vampiro y músico decide reencontrarse con su amante. Él está en Detroit, ella está en Tánger. Conseguirán reunirse, pero la aparición de la hermana de ella romperá el idilio. Jim Jarmusch firma una atípica película de vampiros, en la que la cultura ocupa un lugar fundamental. Un filme completamente nocturno, en el que la edad de los protagonistas choca con las maneras del mundo contemporáneo. 



Título original: Only Lovers Left Alive
Año: 2013
Duración: 123 min.
País: Reino Unido
Director: Jim Jarmusch
Guión: Jim Jarmusch
Música: SQÜRL 
Fotografía: Yorick Le Saux
Reparto: Tilda Swinton, Tom Hiddleston, Mia Wasikowska, John Hurt, Anton Yelchin, Slimane Dazi, Jeffrey Wright
Productora: Recorded Picture Company / Pandora Films / Faliro House Productions
Género: Fantástico. Romance | Vampiros. Drama romántico

General
Format                                   : MPEG-4
Format profile                           : Base Media
Codec ID                                 : isom
File size                                : 750 MiB
Duration                                 : 2h 2mn
Overall bit rate mode                    : Variable
Overall bit rate                         : 859 Kbps
Writing application                      : Lavf54.63.104

Video
ID                                       : 1
Format                                   : AVC
Format/Info                              : Advanced Video Codec
Format profile                           : [email protected]
Format settings, CABAC                   : Yes
Format settings, ReFrames                : 4 frames
Codec ID                                 : avc1
Codec ID/Info                            : Advanced Video Coding
Duration                                 : 2h 2mn
Bit rate                                 : 750 Kbps
Width                                    : 720 pixels
Height                                   : 384 pixels
Display aspect ratio                     : 1.85:1
Original display aspect ratio            : 1.85:1
Frame rate mode                          : Constant
Frame rate                               : 29.970 fps
Color space                              : YUV
Chroma subsampling                       : 4:2:0
Bit depth                                : 8 bits
Scan type                                : Progressive
Bits/(Pixel*Frame)                       : 0.091
Stream size                              : 672 MiB (90%)
Writing library                          : x264 core 120 r2151 a3f4407
Encoding settings                        : cabac=1 / ref=3 / deblock=1:0:0 / analyse=0x3:0x113 / me=hex / subme=7 / psy=1 / psy_rd=1.00:0.00 / mixed_ref=1 / me_range=16 / chroma_me=1 / trellis=1 / 8x8dct=1 / cqm=0 / deadzone=21,11 / fast_pskip=1 / chroma_qp_offset=-2 / threads=16 / sliced_threads=0 / nr=0 / decimate=1 / interlaced=0 / bluray_compat=0 / constrained_intra=0 / bframes=3 / b_pyramid=2 / b_adapt=1 / b_bias=0 / direct=1 / weightb=1 / open_gop=0 / weightp=2 / keyint=25 / keyint_min=2 / scenecut=40 / intra_refresh=0 / rc_lookahead=25 / rc=abr / mbtree=1 / bitrate=750 / ratetol=1.0 / qcomp=0.60 / qpmin=0 / qpmax=69 / qpstep=4 / ip_ratio=1.40 / aq=1:1.00

Audio
ID                                       : 2
Format                                   : AAC
Format/Info                              : Advanced Audio Codec
Format profile                           : LC
Codec ID                                 : 40
Duration                                 : 2h 2mn
Duration_LastFrame                       : -30ms
Bit rate mode                            : Variable
Bit rate                                 : 82.7 Kbps
Maximum bit rate                         : 128 Kbps
Channel(s)                               : 2 channels
Channel positions                        : Front: L R
Sampling rate                            : 24.0 KHz
Compression mode                         : Lossy
Stream size                              : 72.2 MiB (10%)






http://www35.zippyshare.com/v/4297455/file.html
http://www4.zippyshare.com/v/10787182/file.html
http://www38.zippyshare.com/v/27182129/file.html
http://www69.zippyshare.com/v/48158361/file.html
Only Lovers Left Alive [DVDSCR][VOSE][2014]
0 Puntos Score: 0/10
Visitas: 2902 Favoritos: 2
3 Comentarios Only Lovers Left Alive [DVDSCR][VOSE][2014]
, gracias por el dato.
gracias la quiero ver
Para dejar un comentario Registrate! o.. eres ya usuario? Accede!