Stand Off [HDRip 720p][Latino][2011]




Las necesidades e irresponsabilidades de Jimbo lo llevaron a cometer crímenes letales. Por un lado debe cuidar a su familia y por el otro pagarle a un mafioso el dinero que le debe por los juegos de azar. Elabora un plan sencillo el cual tratara de robar una tiende de pescado y huir de allí, pero todo se complica cuando se encuentra acorralado por la policía e improvisadamente coge de rehenes a un grupo de persona como una opción de salida. El joven buscara de manera desesperada salir a como de lugar de esa encrucijada en la que esta sometido.



Título original: Whole Lotta Sole
Otros Títulos: Stand Off
Título Hispano: Atraco Riesgoso
Año: 2011
Duración: 89 min.
País: Estados Unidos
Director: Terry George
Guión: Thomas Gallagher, Terry George
Género: Drama. Comedia
Temática: Robos & Atracos

General
Format                                   : AVI
Format/Info                              : Audio Video Interleave
Format profile                           : OpenDML
File size                                : 1.28 GiB
Duration                                 : 1h 29mn
Overall bit rate                         : 2 051 Kbps
Writing application                      : Lavf52.84.0

Video
ID                                       : 0
Format                                   : MPEG-4 Visual
Codec ID                                 : FMP4
Duration                                 : 1h 29mn
Bit rate                                 : 1 906 Kbps
Width                                    : 1 280 pixels
Height                                   : 720 pixels
Display aspect ratio                     : 16:9
Frame rate                               : 29.970 fps
Color space                              : YUV
Chroma subsampling                       : 4:2:0
Compression mode                         : Lossy
Bits/(Pixel*Frame)                       : 0.069
Stream size                              : 1.19 GiB (93%)

Audio
ID                                       : 1
Format                                   : MPEG Audio
Format version                           : Version 1
Format profile                           : Layer 3
Mode                                     : Joint stereo
Mode extension                           : MS Stereo
Codec ID                                 : 55
Codec ID/Hint                            : MP3
Duration                                 : 1h 29mn
Bit rate mode                            : Constant
Bit rate                                 : 128 Kbps
Channel(s)                               : 2 channels
Sampling rate                            : 48.0 KHz
Compression mode                         : Lossy
Stream size                              : 81.8 MiB (6%)
Alignment                                : Aligned on interleaves
Interleave, duration                     : 24 ms (0.72 video frame)
Writing library                          : LAME3.98.4






http://www23.zippyshare.com/v/42025470/file.html






Stand Off [HDRip 720p][Latino][2011]
0 Puntos Score: 0/10
Visitas: 2369 Favoritos: 0
5 Comentarios Stand Off [HDRip 720p][Latino][2011]
Los enlaces tienen el nombre de Non Stop est?
xskebis- Non Stop y Stand Off tienen los mismos enlaces.
Faltan los de Stand Off, podr?
Cita mariocue: Mostrar
Cita mariocue: Mostrar
a ti amigo por informarme...
Para dejar un comentario Registrate! o.. eres ya usuario? Accede!