Non Stop [HDRip 720p][VOSE][2014]




El oficial del ejército del aire Bill Marks (Liam Neeson) se encuentra a bordo de un vuelo transoceánico que va de Nueva York a Londres. En mitad del trayecto, Bill empieza a recibir unos mensajes de texto crípticos: le piden que obligue a la aerolínea a depositar 150 millones de dólares en una cuenta secreta. Si no, morirá un pasajero cada 20 minutos. El estrés hará mella en Bill, que siempre pensó que su trabajo se parecería más al de un gris oficinista que al de un héroe de acción bajo cuya responsabilidad se encuentran decenas de personas inocentes.



Título: Non-Stop
Título original: Non-Stop
Dirección: Jaume Collet-Serra
País: Estados Unidos
Año: 2014
Fecha de estreno: 21/03/2014
Duración: 106 min
Género: Thriller, Acción, Intriga
Calificación: No recomendada para menores de 12 años
Reparto: Anson Mount, Julianne Moore, Liam Neeson, Michelle Dockery, Corey Stoll, Scoot McNairy, Linus Roache, Jon Abrahams, Lupita Nyong'o, Omar Metwally
Web: www.nonstopthefilm.com
Distribuidora: TriPictures
Productora: Universal Pictures, Silver Pictures, StudioCanal

General
Format                                   : MPEG-4
Format profile                           : Base Media / Version 2
Codec ID                                 : mp42
File size                                : 994 MiB
Duration                                 : 1h 46mn
Overall bit rate mode                    : Variable
Overall bit rate                         : 1 304 Kbps
Encoded date                             : UTC 2014-05-25 14:59:41
Tagged date                              : UTC 2014-05-25 15:24:39
Writing application                      : DVDFab

Video
ID                                       : 1
Format                                   : AVC
Format/Info                              : Advanced Video Codec
Format profile                           : [email protected]
Format settings, CABAC                   : Yes
Format settings, ReFrames                : 1 frame
Codec ID                                 : avc1
Codec ID/Info                            : Advanced Video Coding
Duration                                 : 1h 46mn
Bit rate mode                            : Variable
Bit rate                                 : 1 171 Kbps
Width                                    : 1 280 pixels
Height                                   : 536 pixels
Display aspect ratio                     : 2.40:1
Frame rate mode                          : Variable
Frame rate                               : 23.976 fps
Minimum frame rate                       : 23.974 fps
Maximum frame rate                       : 23.981 fps
Color space                              : YUV
Chroma subsampling                       : 4:2:0
Bit depth                                : 8 bits
Scan type                                : Progressive
Bits/(Pixel*Frame)                       : 0.071
Stream size                              : 893 MiB (90%)
Writing library                          : x264 core
Encoded date                             : UTC 2014-05-25 14:59:41
Tagged date                              : UTC 2014-05-25 15:24:35
Color primaries                          : BT.709-5, BT.1361, IEC 61966-2-4, SMPTE RP177
Transfer characteristics                 : BT.709-5, BT.1361
Matrix coefficients                      : BT.709-5, BT.1361, IEC 61966-2-4 709, SMPTE RP177

Audio
ID                                       : 2
Format                                   : AAC
Format/Info                              : Advanced Audio Codec
Format profile                           : LC
Codec ID                                 : 40
Duration                                 : 1h 46mn
Bit rate mode                            : Variable
Bit rate                                 : 128 Kbps
Maximum bit rate                         : 194 Kbps
Channel(s)                               : 2 channels
Channel positions                        : Front: L R
Sampling rate                            : 48.0 KHz
Compression mode                         : Lossy
Stream size                              : 97.5 MiB (10%)
Language                                 : English
Encoded date                             : UTC 2014-05-25 14:59:41
Tagged date                              : UTC 2014-05-25 15:23:29






http://www2.zippyshare.com/v/17420774/file.html
http://www7.zippyshare.com/v/71795075/file.html
http://www74.zippyshare.com/v/23714218/file.html
http://www65.zippyshare.com/v/73263652/file.html
http://www36.zippyshare.com/v/53932172/file.html
Non Stop [HDRip 720p][VOSE][2014]
10 Puntos Score: 10/10
Visitas: 1891 Favoritos: 2
Ver los usuarios que votaron...
2 Comentarios Non Stop [HDRip 720p][VOSE][2014]
Gracias por el aporte
Gracias por el aporte, el link 4 esta caido...
Para dejar un comentario Registrate! o.. eres ya usuario? Accede!