Non Stop [HDRip 720p][Latino][2014]




El oficial del ejército del aire Bill Marks (Liam Neeson) se encuentra a bordo de un vuelo transoceánico que va de Nueva York a Londres. En mitad del trayecto, Bill empieza a recibir unos mensajes de texto crípticos: le piden que obligue a la aerolínea a depositar 150 millones de dólares en una cuenta secreta. Si no, morirá un pasajero cada 20 minutos. El estrés hará mella en Bill, que siempre pensó que su trabajo se parecería más al de un gris oficinista que al de un héroe de acción bajo cuya responsabilidad se encuentran decenas de personas inocentes.



Título: Non-Stop
Título original: Non-Stop
Dirección: Jaume Collet-Serra
País: Estados Unidos
Año: 2014
Fecha de estreno: 21/03/2014
Duración: 106 min
Género: Thriller, Acción, Intriga
Calificación: No recomendada para menores de 12 años
Reparto: Anson Mount, Julianne Moore, Liam Neeson, Michelle Dockery, Corey Stoll, Scoot McNairy, Linus Roache, Jon Abrahams, Lupita Nyong'o, Omar Metwally
Web: www.nonstopthefilm.com
Distribuidora: TriPictures
Productora: Universal Pictures, Silver Pictures, StudioCanal

General
Format                                   : AVI
Format/Info                              : Audio Video Interleave
Format profile                           : OpenDML
File size                                : 1.76 GiB
Duration                                 : 1h 46mn
Overall bit rate                         : 2 365 Kbps
Writing application                      : Lavf52.84.0

Video
ID                                       : 0
Format                                   : MPEG-4 Visual
Codec ID                                 : FMP4
Duration                                 : 1h 46mn
Bit rate                                 : 2 223 Kbps
Width                                    : 1 280 pixels
Height                                   : 720 pixels
Display aspect ratio                     : 16:9
Frame rate                               : 29.970 fps
Color space                              : YUV
Chroma subsampling                       : 4:2:0
Compression mode                         : Lossy
Bits/(Pixel*Frame)                       : 0.080
Stream size                              : 1.66 GiB (94%)

Audio
ID                                       : 1
Format                                   : MPEG Audio
Format version                           : Version 1
Format profile                           : Layer 3
Mode                                     : Joint stereo
Codec ID                                 : 55
Codec ID/Hint                            : MP3
Duration                                 : 1h 46mn
Bit rate mode                            : Constant
Bit rate                                 : 128 Kbps
Channel(s)                               : 2 channels
Sampling rate                            : 48.0 KHz
Compression mode                         : Lossy
Stream size                              : 97.6 MiB (5%)
Alignment                                : Aligned on interleaves
Interleave, duration                     : 24 ms (0.72 video frame)
Writing library                          : LAME3.98.4






http://www56.zippyshare.com/v/67795487/file.html
http://www5.zippyshare.com/v/98038070/file.html
http://www55.zippyshare.com/v/59752919/file.html
http://www25.zippyshare.com/v/86006753/file.html
http://www35.zippyshare.com/v/95060900/file.html
http://www22.zippyshare.com/v/96117400/file.html
http://www7.zippyshare.com/v/17240342/file.html
http://www16.zippyshare.com/v/31422357/file.html
http://www35.zippyshare.com/v/35224488/file.html
http://www58.zippyshare.com/v/77396401/file.html
Non Stop [HDRip 720p][Latino][2014]
0 Puntos Score: 0/10
Visitas: 3480 Favoritos: 2
4 Comentarios Non Stop [HDRip 720p][Latino][2014]
Mejor montalas en MEGA; servidor lento
con mi pony anda bien para descargar
Muchas gracias, con Jdownloader baj?
Gracias Excelente aporte
Para dejar un comentario Registrate! o.. eres ya usuario? Accede!