Casese Quien Pueda [HDRip 720p][Latino][2013]




Ana se pierde en la selva, una semana antes de su boda, su hermana Daniela, se queda con la familia de la novia, mientras Ana pelea con mosquitos, serpientes, lagartos y los nativos tratando de volver a la ciudad.



Título original: Casese Quien Pueda
Año: 2013
País: México
Director: Marco Polo Constandse
Guión: Martha Higareda
Fotografía: Horacio Marquínez
Reparto: Martha Higareda, Michel Brown, Miri Higareda, Luis Gerardo Méndez, Fernando Luján, Juan Pablo Medina

General
Format                                   : MPEG-4
Format profile                           : Base Media / Version 2
Codec ID                                 : mp42
File size                                : 989 MiB
Duration                                 : 1h 47mn
Overall bit rate mode                    : Variable
Overall bit rate                         : 1 290 Kbps
Encoded date                             : UTC 2014-05-28 23:50:01
Tagged date                              : UTC 2014-05-29 00:11:44
Writing application                      : DVDFab

Video
ID                                       : 1
Format                                   : AVC
Format/Info                              : Advanced Video Codec
Format profile                           : [email protected]
Format settings, CABAC                   : Yes
Format settings, ReFrames                : 1 frame
Codec ID                                 : avc1
Codec ID/Info                            : Advanced Video Coding
Duration                                 : 1h 47mn
Bit rate mode                            : Variable
Bit rate                                 : 1 157 Kbps
Width                                    : 1 280 pixels
Height                                   : 720 pixels
Display aspect ratio                     : 16:9
Frame rate mode                          : Variable
Frame rate                               : 23.976 fps
Minimum frame rate                       : 23.974 fps
Maximum frame rate                       : 23.981 fps
Color space                              : YUV
Chroma subsampling                       : 4:2:0
Bit depth                                : 8 bits
Scan type                                : Progressive
Bits/(Pixel*Frame)                       : 0.052
Stream size                              : 888 MiB (90%)
Writing library                          : x264 core
Encoded date                             : UTC 2014-05-28 23:50:01
Tagged date                              : UTC 2014-05-29 00:11:40
Color primaries                          : BT.709-5, BT.1361, IEC 61966-2-4, SMPTE RP177
Transfer characteristics                 : BT.709-5, BT.1361
Matrix coefficients                      : BT.709-5, BT.1361, IEC 61966-2-4 709, SMPTE RP177

Audio
ID                                       : 2
Format                                   : AAC
Format/Info                              : Advanced Audio Codec
Format profile                           : LC
Codec ID                                 : 40
Duration                                 : 1h 47mn
Bit rate mode                            : Variable
Bit rate                                 : 128 Kbps
Maximum bit rate                         : 201 Kbps
Channel(s)                               : 2 channels
Channel positions                        : Front: L R
Sampling rate                            : 48.0 KHz
Compression mode                         : Lossy
Stream size                              : 98.2 MiB (10%)
Language                                 : Spanish
Encoded date                             : UTC 2014-05-28 23:50:01
Tagged date                              : UTC 2014-05-29 00:11:28

Text
ID                                       : 3
Format                                   : Apple text
Codec ID                                 : text
Duration                                 : 1h 47mn
Bit rate mode                            : Variable
Bit rate                                 : 0 bps
Stream size                              : 279 Bytes (0%)
Encoded date                             : UTC 2014-05-28 23:50:01
Tagged date                              : UTC 2014-05-29 00:11:44






http://www64.zippyshare.com/v/84849231/file.html
http://www15.zippyshare.com/v/90367816/file.html
http://www40.zippyshare.com/v/18214224/file.html
http://www29.zippyshare.com/v/59848362/file.html
http://www59.zippyshare.com/v/46595435/file.html
Casese Quien Pueda [HDRip 720p][Latino][2013]
20 Puntos Score: 10/10
Visitas: 4910 Favoritos: 5
Ver los usuarios que votaron...
6 Comentarios Casese Quien Pueda [HDRip 720p][Latino][2013]
@Deiren Solo en brasier, no las ense?
muchisimas gracias, saludos
Gracias por el aporte  
Para dejar un comentario Registrate! o.. eres ya usuario? Accede!