Godzilla [TSHQ][Latino][2014]




Un monstruo gigante radioactivo llamado Godzilla emerge de las profundidades dispuesto a sembrar el caos y a provocar la destrucción de la raza humana. Además, en paralelo, el monstruo más famoso del mundo se enfrenta a malvadas criaturas que, animadas por la arrogancia científica de la humanidad, amenazan nuestra propia existencia. ¡Sólo nos queda intentar sobrevivir!



Título: Godzilla
Título original: Godzilla
Dirección: Gareth Edwards
País: Estados Unidos
Año: 2014
Fecha de estreno: 16/05/2014
Duración: 123 min
Género: Aventuras, Acción, Fantástico
Reparto: Ken Watanabe, Bryan Cranston, Elizabeth Olsen, Juliette Binoche, Sally Hawkins, David Strathairn, Victor Rasuk, Aaron Taylor-Johnson, Brian Markinson, Al Sapienza
Web: Godzilla | Official Movie Site | Now Playing In Theaters
Distribuidora: Warner Bros. Pictures
Productora: Warner Bros. Pictures, Legendary Pictures

General
Format                                   : MPEG-4
Format profile                           : Base Media
Codec ID                                 : isom
File size                                : 610 MiB
Duration                                 : 1h 40mn
Overall bit rate mode                    : Variable
Overall bit rate                         : 845 Kbps
Writing application                      : Lavf54.63.104

Video
ID                                       : 1
Format                                   : AVC
Format/Info                              : Advanced Video Codec
Format profile                           : [email protected]
Format settings, CABAC                   : Yes
Format settings, ReFrames                : 4 frames
Codec ID                                 : avc1
Codec ID/Info                            : Advanced Video Coding
Duration                                 : 1h 40mn
Bit rate                                 : 750 Kbps
Width                                    : 720 pixels
Height                                   : 320 pixels
Display aspect ratio                     : 2.2:1
Original display aspect ratio            : 2.2:1
Frame rate mode                          : Constant
Frame rate                               : 29.970 fps
Color space                              : YUV
Chroma subsampling                       : 4:2:0
Bit depth                                : 8 bits
Scan type                                : Progressive
Bits/(Pixel*Frame)                       : 0.109
Stream size                              : 546 MiB (90%)
Writing library                          : x264 core 120 r2151 a3f4407
Encoding settings                        : cabac=1 / ref=3 / deblock=1:0:0 / analyse=0x3:0x113 / me=hex / subme=7 / psy=1 / psy_rd=1.00:0.00 / mixed_ref=1 / me_range=16 / chroma_me=1 / trellis=1 / 8x8dct=1 / cqm=0 / deadzone=21,11 / fast_pskip=1 / chroma_qp_offset=-2 / threads=16 / sliced_threads=0 / nr=0 / decimate=1 / interlaced=0 / bluray_compat=0 / constrained_intra=0 / bframes=3 / b_pyramid=2 / b_adapt=1 / b_bias=0 / direct=1 / weightb=1 / open_gop=0 / weightp=2 / keyint=25 / keyint_min=2 / scenecut=40 / intra_refresh=0 / rc_lookahead=25 / rc=abr / mbtree=1 / bitrate=750 / ratetol=1.0 / qcomp=0.60 / qpmin=0 / qpmax=69 / qpstep=4 / ip_ratio=1.40 / aq=1:1.00

Audio
ID                                       : 2
Format                                   : AAC
Format/Info                              : Advanced Audio Codec
Format profile                           : LC
Codec ID                                 : 40
Duration                                 : 1h 40mn
Duration_LastFrame                       : -8ms
Bit rate mode                            : Variable
Bit rate                                 : 82.7 Kbps
Maximum bit rate                         : 128 Kbps
Channel(s)                               : 2 channels
Channel positions                        : Front: L R
Sampling rate                            : 24.0 KHz
Compression mode                         : Lossy
Stream size                              : 59.7 MiB (10%)






http://www68.zippyshare.com/v/86888723/file.html
http://www8.zippyshare.com/v/3468955/file.html
http://www7.zippyshare.com/v/11749109/file.html
http://www55.zippyshare.com/v/47621908/file.html
Godzilla [TSHQ][Latino][2014]
5 Puntos Score: 5/10
Visitas: 9934 Favoritos: 3
Ver los usuarios que votaron...
6 Comentarios Godzilla [TSHQ][Latino][2014]
bajando, gracias
Gracias por la peli, ya la descargue y la calidad es muy aceptable  
te falta poner que no esta completa que se salta partes
Cita kal555: Mostrar
ESTA TODA CORTADA LA PEL?
@kal555 @icarouy muchas gracias por avisar que esta cortada asi no la bajo
Para dejar un comentario Registrate! o.. eres ya usuario? Accede!