Redencion [HDRip 720p][Latino][2013]




Un ex soldado de las fuerzas británicas (Jason Statham) debe sobrevivir sin un techo bajo el que dormir y huir de las leyes marciales que le amenazan. Nuestro protagonista se inmiscuye en el ambiente 'underground' de Londres, donde tiene la oportunidad de asumir otra identidad. Muy pronto se convertirá en un ángel vengador que ajustará cuentas con quienes un día les hicieron sufrir tanto a él como a sus seres queridos.



Título: Redención (Hummingbird)
Título original: Redemption
Dirección: Steven Knight
País: El Reino Unido, Estados Unidos
Año: 2013
Fecha de estreno: 21/05/2014
Duración: 100 min
Género: Criminal, Drama, Acción
Calificación: No recomendada para menores de 16 años
Reparto: Jason Statham, Lee Asquith-Coe, Benedict Wong, Siobhan Hewlett, David Bradley, Ian Pirie, Agata Buzek, Paul Blackwell, Ger Ryan, Senem Temiz
Distribuidora: Flins y Pinículas
Productora: Lionsgate

General
Format                                   : MPEG-4
Format profile                           : Base Media / Version 2
Codec ID                                 : mp42
File size                                : 983 MiB
Duration                                 : 1h 40mn
Overall bit rate mode                    : Variable
Overall bit rate                         : 1 370 Kbps
Encoded date                             : UTC 2014-05-21 19:59:31
Tagged date                              : UTC 2014-05-21 20:25:05
Writing application                      : DVDFab

Video
ID                                       : 1
Format                                   : AVC
Format/Info                              : Advanced Video Codec
Format profile                           : [email protected]
Format settings, CABAC                   : Yes
Format settings, ReFrames                : 1 frame
Codec ID                                 : avc1
Codec ID/Info                            : Advanced Video Coding
Duration                                 : 1h 40mn
Bit rate mode                            : Variable
Bit rate                                 : 1 241 Kbps
Width                                    : 1 280 pixels
Height                                   : 720 pixels
Display aspect ratio                     : 16:9
Frame rate mode                          : Variable
Frame rate                               : 23.976 fps
Minimum frame rate                       : 23.974 fps
Maximum frame rate                       : 23.981 fps
Color space                              : YUV
Chroma subsampling                       : 4:2:0
Bit depth                                : 8 bits
Scan type                                : Progressive
Bits/(Pixel*Frame)                       : 0.056
Stream size                              : 888 MiB (90%)
Writing library                          : x264 core
Encoded date                             : UTC 2014-05-21 19:59:31
Tagged date                              : UTC 2014-05-21 20:25:01
Color primaries                          : BT.709-5, BT.1361, IEC 61966-2-4, SMPTE RP177
Transfer characteristics                 : BT.709-5, BT.1361
Matrix coefficients                      : BT.709-5, BT.1361, IEC 61966-2-4 709, SMPTE RP177

Audio
ID                                       : 2
Format                                   : AAC
Format/Info                              : Advanced Audio Codec
Format profile                           : LC
Codec ID                                 : 40
Duration                                 : 1h 40mn
Bit rate mode                            : Variable
Bit rate                                 : 127 Kbps
Maximum bit rate                         : 207 Kbps
Channel(s)                               : 2 channels
Channel positions                        : Front: L R
Sampling rate                            : 48.0 KHz
Compression mode                         : Lossy
Stream size                              : 91.5 MiB (9%)
Encoded date                             : UTC 2014-05-21 19:59:31
Tagged date                              : UTC 2014-05-21 20:23:58






http://www73.zippyshare.com/v/31744256/file.html
http://www62.zippyshare.com/v/70191045/file.html
http://www8.zippyshare.com/v/1817167/file.html
http://www12.zippyshare.com/v/73435785/file.html
http://www47.zippyshare.com/v/85289897/file.html
Redencion [HDRip 720p][Latino][2013]
5 Puntos Score: 5/10
Visitas: 3539 Favoritos: 3
Ver los usuarios que votaron...
7 Comentarios Redencion [HDRip 720p][Latino][2013]
Gracias muy buena peli..
buena peli ya la habia visto recomendable
muchas gracias genio +5 y reco  

un abrazo!
Gracias mostruo.....  
descargando a ver q tal! se agradece !!!!
descargada gracias
gracias... ya con esto la hare dual!
Para dejar un comentario Registrate! o.. eres ya usuario? Accede!