Blended [TSHQ][VOSE][2014]




Hace un tiempo, Jim y Lauren (Adam Sandler y Drew Barrymore) concertaron una cita a ciegas para conocerse y, tal vez, llegar a la segunda base. Pero la cita fue un completo desastre y no tardaron en olvidarse el uno del otro. Sin embargo -caprichos del destino- Jim y Lauren acaban de volver a encontrarse en uno de esos resorts de lujo donde las familias pasan sus felices vacaciones. Poco a poco empezarán a sentir algo el uno respecto al otro, aunque parece difícil que ese algo esté relacionado con la fatídica palabra: amor. La presencia de los hijos de ambos complicará aún más la relación.



Título: Juntos y revueltos
Título original: Blended
Dirección: Frank Coraci
País: Estados Unidos
Año: 2014
Fecha de estreno: 27/06/2014
Duración: 117 min
Género: Comedia
Reparto: Adam Sandler, Drew Barrymore, Wendi McLendon-Covey, Bella Thorne, Terry Crews, Joel McHale, Kevin Nealon, Emma Fuhrmann, Anna Colwell
Distribuidora: Warner Bros. Pictures
Productora: Warner Bros., Happy Madison Productions, Karz Entertainment

General
Format                                   : AVI
Format/Info                              : Audio Video Interleave
Format profile                           : OpenDML
File size                                : 1.54 GiB
Duration                                 : 1h 50mn
Overall bit rate                         : 2 006 Kbps
Writing application                      : Lavf52.84.0

Video
ID                                       : 0
Format                                   : MPEG-4 Visual
Codec ID                                 : FMP4
Duration                                 : 1h 50mn
Bit rate                                 : 1 863 Kbps
Width                                    : 864 pixels
Height                                   : 496 pixels
Display aspect ratio                     : 16:9
Frame rate                               : 29.970 fps
Color space                              : YUV
Chroma subsampling                       : 4:2:0
Compression mode                         : Lossy
Bits/(Pixel*Frame)                       : 0.145
Stream size                              : 1.43 GiB (93%)

Audio
ID                                       : 1
Format                                   : MPEG Audio
Format version                           : Version 1
Format profile                           : Layer 3
Mode                                     : Joint stereo
Mode extension                           : MS Stereo
Codec ID                                 : 55
Codec ID/Hint                            : MP3
Duration                                 : 1h 50mn
Bit rate mode                            : Constant
Bit rate                                 : 128 Kbps
Channel(s)                               : 2 channels
Sampling rate                            : 48.0 KHz
Compression mode                         : Lossy
Stream size                              : 101 MiB (6%)
Alignment                                : Aligned on interleaves
Interleave, duration                     : 24 ms (0.72 video frame)
Interleave, preload duration             : 24 ms






http://www3.zippyshare.com/v/23187899/file.html
http://www13.zippyshare.com/v/21033327/file.html
http://www18.zippyshare.com/v/38887749/file.html
http://www12.zippyshare.com/v/95040592/file.html
http://www39.zippyshare.com/v/61386504/file.html
http://www45.zippyshare.com/v/99241699/file.html
http://www27.zippyshare.com/v/11823078/file.html
http://www54.zippyshare.com/v/55886355/file.html
Blended [TSHQ][VOSE][2014]
0 Puntos Score: 0/10
Visitas: 3650 Favoritos: 0
5 Comentarios Blended [TSHQ][VOSE][2014]
gracias por la pelicula,lastima que los subtitulos sean tan peque?
ya en hdrip chino capuchino,Blended.2014.HDRip.HC.XviD.MP3-RBG.avi
BUENA,,LA VI EL FIN DE SMENA EN CINE,,,ME GUSTO.........
Gracias por el aporte bajaaaaaando. :up
Para dejar un comentario Registrate! o.. eres ya usuario? Accede!