360 [HDRip 720p][VOSE][2012]




Un hombre de negocios se enfrenta a una dura decisión: serle fiel o no a su mujer. A partir de este momento se origina una serie de acontecimientos que se desarrollan alrededor del mundo con consecuencias dramáticas, haciendo que la trama acabe volviendo 360 grados al lugar de la decisión original. Escrita a la sombra de la crisis bancaria internacional, el efecto dominó de la Primavera Árabe, la amenaza de las pandemias globales y la inestabilidad en la Eurozona, para los creadores de '360: Juego de destinos', el mundo nunca ha estado tan interconectado como ahora.



Título: 360: Juego de destinos
Título original: 360
Dirección: Fernando Meirelles
País: Francia, El Reino Unido, Brasil, Austria
Año: 2011
Fecha de estreno: 31/05/2013
Duración: 110 min
Género: Drama, Romance
Reparto: Anthony Hopkins, Ben Foster, Dinara Drukarova, Gabriela Marcinkova, Jamel Debbouze, Johannes Krisch, Jude Law, Juliano Cazarré, Lucia Siposová, Maria Flor
Guión: Peter Morgan
Web: www.360lapelicula.es
Distribuidora: Vertigo Films
Productora: BBC Films, Dor Film Produktionsgesellschaft, O2 Filmes, Revolution Films, Muse Productions, ORF Film/Fernseh-Abkommen, Gravity Entertainment, Unison Films

General
Format                                   : MPEG-4
Format profile                           : Base Media / Version 2
Codec ID                                 : mp42
File size                                : 968 MiB
Duration                                 : 1h 50mn
Overall bit rate mode                    : Variable
Overall bit rate                         : 1 228 Kbps
Encoded date                             : UTC 2014-05-22 00:23:23
Tagged date                              : UTC 2014-05-22 00:45:43
Writing application                      : DVDFab

Video
ID                                       : 1
Format                                   : AVC
Format/Info                              : Advanced Video Codec
Format profile                           : [email protected]
Format settings, CABAC                   : Yes
Format settings, ReFrames                : 1 frame
Codec ID                                 : avc1
Codec ID/Info                            : Advanced Video Coding
Duration                                 : 1h 50mn
Bit rate mode                            : Variable
Bit rate                                 : 1 095 Kbps
Width                                    : 1 280 pixels
Height                                   : 544 pixels
Display aspect ratio                     : 2.35:1
Frame rate mode                          : Variable
Frame rate                               : 23.976 fps
Minimum frame rate                       : 23.974 fps
Maximum frame rate                       : 23.981 fps
Color space                              : YUV
Chroma subsampling                       : 4:2:0
Bit depth                                : 8 bits
Scan type                                : Progressive
Bits/(Pixel*Frame)                       : 0.066
Stream size                              : 863 MiB (89%)
Writing library                          : x264 core
Encoded date                             : UTC 2014-05-22 00:23:23
Tagged date                              : UTC 2014-05-22 00:45:39
Color primaries                          : BT.709-5, BT.1361, IEC 61966-2-4, SMPTE RP177
Transfer characteristics                 : BT.709-5, BT.1361
Matrix coefficients                      : BT.709-5, BT.1361, IEC 61966-2-4 709, SMPTE RP177

Audio
ID                                       : 2
Format                                   : AAC
Format/Info                              : Advanced Audio Codec
Format profile                           : LC
Codec ID                                 : 40
Duration                                 : 1h 50mn
Bit rate mode                            : Variable
Bit rate                                 : 128 Kbps
Maximum bit rate                         : 220 Kbps
Channel(s)                               : 2 channels
Channel positions                        : Front: L R
Sampling rate                            : 48.0 KHz
Compression mode                         : Lossy
Stream size                              : 101 MiB (10%)
Encoded date                             : UTC 2014-05-22 00:23:23
Tagged date                              : UTC 2014-05-22 00:44:27






http://www51.zippyshare.com/v/97701545/file.html
http://www37.zippyshare.com/v/81223072/file.html
http://www39.zippyshare.com/v/50560606/file.html
http://www15.zippyshare.com/v/66589607/file.html
http://www44.zippyshare.com/v/45543458/file.html
360 [HDRip 720p][VOSE][2012]
0 Puntos Score: 0/10
Visitas: 1664 Favoritos: 1
0 Comentarios 360 [HDRip 720p][VOSE][2012]
Este post no tiene comentarios. Sea el primero!
Para dejar un comentario Registrate! o.. eres ya usuario? Accede!