360 [HDRip 720p][Castellano][2012]




Un hombre de negocios se enfrenta a una dura decisión: serle fiel o no a su mujer. A partir de este momento se origina una serie de acontecimientos que se desarrollan alrededor del mundo con consecuencias dramáticas, haciendo que la trama acabe volviendo 360 grados al lugar de la decisión original. Escrita a la sombra de la crisis bancaria internacional, el efecto dominó de la Primavera Árabe, la amenaza de las pandemias globales y la inestabilidad en la Eurozona, para los creadores de '360: Juego de destinos', el mundo nunca ha estado tan interconectado como ahora.



Título: 360: Juego de destinos
Título original: 360
Dirección: Fernando Meirelles
País: Francia, El Reino Unido, Brasil, Austria
Año: 2011
Fecha de estreno: 31/05/2013
Duración: 110 min
Género: Drama, Romance
Reparto: Anthony Hopkins, Ben Foster, Dinara Drukarova, Gabriela Marcinkova, Jamel Debbouze, Johannes Krisch, Jude Law, Juliano Cazarré, Lucia Siposová, Maria Flor
Guión: Peter Morgan
Web: www.360lapelicula.es
Distribuidora: Vertigo Films
Productora: BBC Films, Dor Film Produktionsgesellschaft, O2 Filmes, Revolution Films, Muse Productions, ORF Film/Fernseh-Abkommen, Gravity Entertainment, Unison Films

General
Format                                   : Matroska
Format version                           : Version 4 / Version 2
File size                                : 824 MiB
Duration                                 : 1h 50mn
Overall bit rate                         : 1 045 Kbps
Encoded date                             : UTC 2014-05-22 01:07:20
Writing application                      : mkvmerge v6.9.1 ('Blue Panther') 64bit built on Apr 18 2014 18:23:38
Writing library                          : libebml v1.3.0 + libmatroska v1.4.1

Video
ID                                       : 1
Format                                   : AVC
Format/Info                              : Advanced Video Codec
Format profile                           : [email protected]
Format settings, CABAC                   : Yes
Format settings, ReFrames                : 12 frames
Codec ID                                 : V_MPEG4/ISO/AVC
Duration                                 : 1h 50mn
Bit rate                                 : 916 Kbps
Width                                    : 1 280 pixels
Height                                   : 544 pixels
Display aspect ratio                     : 2.35:1
Frame rate                               : 23.976 fps
Color space                              : YUV
Chroma subsampling                       : 4:2:0
Bit depth                                : 8 bits
Scan type                                : Progressive
Bits/(Pixel*Frame)                       : 0.055
Stream size                              : 707 MiB (86%)
Writing library                          : x264 core 125 r2200 999b753
Encoding settings                        : cabac=1 / ref=12 / deblock=1:0:0 / analyse=0x3:0x113 / me=hex / subme=7 / psy=1 / psy_rd=1.00:0.00 / mixed_ref=1 / me_range=16 / chroma_me=1 / trellis=1 / 8x8dct=1 / cqm=0 / deadzone=21,11 / fast_pskip=1 / chroma_qp_offset=-2 / threads=6 / lookahead_threads=1 / sliced_threads=0 / nr=0 / decimate=1 / interlaced=0 / bluray_compat=0 / constrained_intra=0 / bframes=8 / b_pyramid=2 / b_adapt=1 / b_bias=0 / direct=1 / weightb=1 / open_gop=0 / weightp=2 / keyint=240 / keyint_min=23 / scenecut=40 / intra_refresh=0 / rc_lookahead=40 / rc=2pass / mbtree=1 / bitrate=916 / ratetol=1.0 / qcomp=0.60 / qpmin=10 / qpmax=51 / qpstep=4 / cplxblur=20.0 / qblur=0.5 / ip_ratio=1.40 / aq=1:1.00
Default                                  : Yes
Forced                                   : No

Audio
ID                                       : 2
Format                                   : MPEG Audio
Format version                           : Version 1
Format profile                           : Layer 3
Mode                                     : Joint stereo
Mode extension                           : MS Stereo
Codec ID                                 : A_MPEG/L3
Codec ID/Hint                            : MP3
Duration                                 : 1h 50mn
Bit rate mode                            : Constant
Bit rate                                 : 128 Kbps
Channel(s)                               : 2 channels
Sampling rate                            : 48.0 KHz
Compression mode                         : Lossy
Stream size                              : 101 MiB (12%)
Writing library                          : LAME3.98r
Encoding settings                        : -m j -V 4 -q 3 -lowpass 17 -b 128
Default                                  : Yes
Forced                                   : No






http://www9.zippyshare.com/v/76706626/file.html
http://www47.zippyshare.com/v/74463213/file.html
http://www8.zippyshare.com/v/15802687/file.html
http://www22.zippyshare.com/v/11451514/file.html
http://www78.zippyshare.com/v/32939814/file.html
360 [HDRip 720p][Castellano][2012]
0 Puntos Score: 0/10
Visitas: 906 Favoritos: 0
0 Comentarios 360 [HDRip 720p][Castellano][2012]
Este post no tiene comentarios. Sea el primero!
Para dejar un comentario Registrate! o.. eres ya usuario? Accede!