X-Men: Days of Future Past [CAM][VOSE][2014]




Los X-Men libran una batalla por la supervivencia de la especie en dos periodos de tiempo diferentes. En 'Días del futuro pasado', los personajes originales de la trilogía 'X-Men' unen sus fuerzas con ellos mismos años atrás ('X-Men: Primera Generación') en una batalla épica que deberá cambiar el pasado para salvar el futuro.



Título: X-Men: Días del futuro pasado
Título original: X-Men: Days of Future Past
Dirección: Bryan Singer
País: Canadá, Estados Unidos
Año: 2014
Fecha de estreno: 06/06/2014
Duración: -
Género: Aventuras, Acción, Fantástico
Reparto: Patrick Stewart, James McAvoy, Michael Fassbender, Ian McKellen, Jennifer Lawrence, Nicholas Hoult, Hugh Jackman, Anna Paquin, Ellen Page, Shawn Ashmore
Web: www.facebook.com/xmenmovies
Distribuidora: 20th Century Fox
Productora: Bad Hat Harry Productions, Twentieth Century Fox Film Corporation

General
Format                                   : AVI
Format/Info                              : Audio Video Interleave
File size                                : 952 MiB
Duration                                 : 1h 47mn
Overall bit rate                         : 1 239 Kbps
Writing application                      : VirtualDubMod 1.5.10.2 (build 2540/release)
Writing library                          : Boilsoft AVI tool build 1/release

Video
ID                                       : 0
Format                                   : MPEG-4 Visual
Format profile                           : Advanced [email protected]
Format settings, BVOP                    : 1
Format settings, QPel                    : No
Format settings, GMC                     : No warppoints
Format settings, Matrix                  : Default (H.263)
Muxing mode                              : Packed bitstream
Codec ID                                 : XVID
Codec ID/Hint                            : XviD
Duration                                 : 1h 47mn
Bit rate                                 : 1 100 Kbps
Width                                    : 640 pixels
Height                                   : 288 pixels
Display aspect ratio                     : 2.222
Frame rate                               : 29.970 fps
Color space                              : YUV
Chroma subsampling                       : 4:2:0
Bit depth                                : 8 bits
Scan type                                : Progressive
Compression mode                         : Lossy
Bits/(Pixel*Frame)                       : 0.199
Stream size                              : 845 MiB (89%)
Writing library                          : XviD 64

Audio
ID                                       : 1
Format                                   : MPEG Audio
Format version                           : Version 1
Format profile                           : Layer 3
Mode                                     : Joint stereo
Mode extension                           : MS Stereo
Codec ID                                 : 55
Codec ID/Hint                            : MP3
Duration                                 : 1h 47mn
Bit rate mode                            : Constant
Bit rate                                 : 128 Kbps
Channel(s)                               : 2 channels
Sampling rate                            : 48.0 KHz
Compression mode                         : Lossy
Stream size                              : 98.3 MiB (10%)
Alignment                                : Aligned on interleaves
Interleave, duration                     : 33 ms (1.00 video frame)
Interleave, preload duration             : 504 ms






http://www10.zippyshare.com/v/62113261/file.html
http://www38.zippyshare.com/v/38789007/file.html
http://www40.zippyshare.com/v/36251265/file.html
http://www77.zippyshare.com/v/62498193/file.html
http://www12.zippyshare.com/v/22910785/file.html
X-Men: Days of Future Past [CAM][VOSE][2014]
0 Puntos Score: 0/10
Visitas: 2929 Favoritos: 0
2 Comentarios X-Men: Days of Future Past [CAM][VOSE][2014]
gracias por la pelicula pero no esta completa,ya hay otro video que dura 2:12 y este dura 1:48 min saludos
Para dejar un comentario Registrate! o.. eres ya usuario? Accede!