The Lunchbox [DVDRip][VOSE][2013]




La película tiene lugar en Mumbai, donde el servicio de correo funciona a gran escala todos los días. Un día se comete un error en la entrega de un paquete. Pero este fallo va a tener una consecuencia agradable: va a suponer el encuentro entre un hombre a punto de jubilarse, Saajan (Irrfan Khan), y una infeliz ama de casa, Ila (Nimrat Kaur). Ambos, mediante el correo diario comienzan a mandarse notas y, así, empieza entre ellos una bonita relación, llena de fantasías, con la que los dos intentan escaparse de la realidad que les está tocando padecer.



Título: The Lunchbox
Título original: Dabba
País: Francia, India, Alemania
Año: 2013
Fecha de estreno: 30/04/2014
Duración: 104 min
Género: Drama, Romance
Reparto: Irrfan Khan, Nawazuddin Siddiqui, Lillete Dubey
Distribuidora: Vertigo Films
Productora: UTV Motion Pictures

General
Format                                   : AVI
Format/Info                              : Audio Video Interleave
File size                                : 790 MiB
Duration                                 : 1h 40mn
Overall bit rate                         : 1 097 Kbps
Writing application                      : Lavf52.84.0

Video
ID                                       : 0
Format                                   : MPEG-4 Visual
Codec ID                                 : FMP4
Duration                                 : 1h 40mn
Bit rate                                 : 956 Kbps
Width                                    : 640 pixels
Height                                   : 272 pixels
Display aspect ratio                     : 2.35:1
Frame rate                               : 25.000 fps
Color space                              : YUV
Chroma subsampling                       : 4:2:0
Compression mode                         : Lossy
Bits/(Pixel*Frame)                       : 0.220
Stream size                              : 689 MiB (87%)

Audio
ID                                       : 1
Format                                   : MPEG Audio
Format version                           : Version 1
Format profile                           : Layer 3
Mode                                     : Joint stereo
Mode extension                           : MS Stereo
Codec ID                                 : 55
Codec ID/Hint                            : MP3
Duration                                 : 1h 40mn
Bit rate mode                            : Constant
Bit rate                                 : 128 Kbps
Channel(s)                               : 2 channels
Sampling rate                            : 48.0 KHz
Compression mode                         : Lossy
Stream size                              : 92.2 MiB (12%)
Alignment                                : Aligned on interleaves
Interleave, duration                     : 24 ms (0.60 video frame)
Interleave, preload duration             : 24 ms
Writing library                          : LAME3.99r
Encoding settings                        : -m j -V 4 -q 2 -lowpass 17 -b 128






http://www60.zippyshare.com/v/56173832/file.html
http://www15.zippyshare.com/v/80273496/file.html
http://www23.zippyshare.com/v/18930626/file.html
http://www27.zippyshare.com/v/25393284/file.html
The Lunchbox [DVDRip][VOSE][2013]
0 Puntos Score: 0/10
Visitas: 1589 Favoritos: 3
1 Comentarios The Lunchbox [DVDRip][VOSE][2013]
Gracias por el aporte...
Para dejar un comentario Registrate! o.. eres ya usuario? Accede!