Lego La Pelicula [HDRip 720p][Latino][2014]




Película basada en los clásicos juguetes LEGO. Emmet (Chris Pratt), el protagonista de la película, trabaja como constructor en la ciudad Lego, pero sus conocimientos no van más allá de colocar las fichas atendiendo las instrucciones de edificación. Sin embargo, sin saber cómo ni por qué, Emmet es confundido con un 'Master Builder' e introducido como cabecilla de una misión que tiene por objetivo evitar que un malvado acabe con la ciudad de bloques. Por suerte, los habitantes de tan atípico lugar no están solos. Los mismísimos Superman y Batman han tomado la forma de muñecos Lego para formar parte de esta gran aventura.



Título: Lego: la película
Título original: The LEGO Movie
Dirección: Phil Lord, Chris Miller
País: Estados Unidos
Año: 2014
Fecha de estreno: 07/02/2014
Duración: 90 min
Género: Comedia, Animación, Acción
Calificación: Apta para todos los públicos
Reparto: Elizabeth Banks, Channing Tatum, Morgan Freeman, Chris Pratt, Will Arnett, Jonah Hill, Will Ferrell, Cobie Smulders, Liam Neeson, Alison Brie
Web: Warner Bros. España
Distribuidora: Warner Bros. Pictures
Productora: Animal Logic, LEGO

General
Format                                   : MPEG-4
Format profile                           : Base Media / Version 2
Codec ID                                 : mp42
File size                                : 977 MiB
Duration                                 : 1h 40mn
Overall bit rate mode                    : Variable
Overall bit rate                         : 1 359 Kbps
Encoded date                             : UTC 2014-05-21 05:05:11
Tagged date                              : UTC 2014-05-21 05:26:25
Writing application                      : DVDFab

Video
ID                                       : 1
Format                                   : AVC
Format/Info                              : Advanced Video Codec
Format profile                           : [email protected]
Format settings, CABAC                   : Yes
Format settings, ReFrames                : 1 frame
Format settings, GOP                     : M=1, N=24
Codec ID                                 : avc1
Codec ID/Info                            : Advanced Video Coding
Duration                                 : 1h 40mn
Bit rate mode                            : Variable
Bit rate                                 : 1 226 Kbps
Width                                    : 1 280 pixels
Height                                   : 644 pixels
Display aspect ratio                     : 1.988
Frame rate mode                          : Variable
Frame rate                               : 23.976 fps
Minimum frame rate                       : 23.974 fps
Maximum frame rate                       : 23.981 fps
Color space                              : YUV
Chroma subsampling                       : 4:2:0
Bit depth                                : 8 bits
Scan type                                : Progressive
Bits/(Pixel*Frame)                       : 0.062
Stream size                              : 882 MiB (90%)
Writing library                          : x264 core
Encoded date                             : UTC 2014-05-21 05:05:11
Tagged date                              : UTC 2014-05-21 05:26:21
Color primaries                          : BT.709-5, BT.1361, IEC 61966-2-4, SMPTE RP177
Transfer characteristics                 : BT.709-5, BT.1361
Matrix coefficients                      : BT.709-5, BT.1361, IEC 61966-2-4 709, SMPTE RP177

Audio
ID                                       : 2
Format                                   : AAC
Format/Info                              : Advanced Audio Codec
Format profile                           : LC
Codec ID                                 : 40
Duration                                 : 1h 40mn
Bit rate mode                            : Variable
Bit rate                                 : 128 Kbps
Maximum bit rate                         : 233 Kbps
Channel(s)                               : 2 channels
Channel positions                        : Front: L R
Sampling rate                            : 48.0 KHz
Compression mode                         : Lossy
Stream size                              : 92.0 MiB (9%)
Encoded date                             : UTC 2014-05-21 05:05:11
Tagged date                              : UTC 2014-05-21 05:26:00






http://www25.zippyshare.com/v/42169779/file.html
http://www63.zippyshare.com/v/52391951/file.html
http://www59.zippyshare.com/v/6710758/file.html
http://www65.zippyshare.com/v/43871656/file.html
http://www29.zippyshare.com/v/86004306/file.html
Lego La Pelicula [HDRip 720p][Latino][2014]
20 Puntos Score: 6.7/10
Visitas: 4936 Favoritos: 1
Ver los usuarios que votaron...
5 Comentarios Lego La Pelicula [HDRip 720p][Latino][2014]
audio final??
Mila gracias la estaba buscando, de nuevo gracias brother!
Muchas gracias! quisiera puntear pero soy novago
Ya no sirven los ENLACES
Para dejar un comentario Registrate! o.. eres ya usuario? Accede!