Lone Survivor [HDRip 720p][Castellano][2013]




Cuatro miembros de un equipo de SEALS de la armada estadounidense se disponen a apresar un líder talibán que está oculto en una región de Afganistán tan remota como peligrosa. Al llegar allí se verán sorprendidos por una emboscada. Les estaban esperando. Sólo uno de los soldados (Mark Wahlberg) logra escapar, por los pelos, de ser capturado. Ahora debe decidir si regresa con los suyos e intenta olvidar lo ocurrido o si arriesga su vida para salvar a los compañeros, que están sufriendo innumerables torturas físicas y psicológicas.



Título: El único superviviente
Título original: Lone Survivor
Dirección: Peter Berg
País: Estados Unidos
Año: 2013
Fecha de estreno: 01/01/2014
Duración: 121 min
Género: Drama, Thriller, Acción
Reparto: Mark Wahlberg, Taylor Kitsch, Eric Bana, Emile Hirsch, Ben Foster, Alexander Ludwig, Scott Elrod, Ali Suliman
Web: www.lonesurvivorfilm.com
Distribuidora: eOne Films
Productora: Emmett/Furla Films, Weed Road Pictures, Foresight Unlimited, Herrick Entertainment, Film 44, Envision Entertainment Corporation

General
Format                                   : MPEG-4
Format profile                           : Base Media / Version 2
Codec ID                                 : mp42
File size                                : 981 MiB
Duration                                 : 2h 1mn
Overall bit rate mode                    : Variable
Overall bit rate                         : 1 131 Kbps
Encoded date                             : UTC 2014-05-20 19:30:45
Tagged date                              : UTC 2014-05-20 19:59:03
Writing application                      : DVDFab

Video
ID                                       : 1
Format                                   : AVC
Format/Info                              : Advanced Video Codec
Format profile                           : [email protected]
Format settings, CABAC                   : Yes
Format settings, ReFrames                : 1 frame
Codec ID                                 : avc1
Codec ID/Info                            : Advanced Video Coding
Duration                                 : 2h 1mn
Bit rate mode                            : Variable
Bit rate                                 : 1 000 Kbps
Width                                    : 1 280 pixels
Height                                   : 540 pixels
Display aspect ratio                     : 2.40:1
Frame rate mode                          : Constant
Frame rate                               : 24.000 fps
Color space                              : YUV
Chroma subsampling                       : 4:2:0
Bit depth                                : 8 bits
Scan type                                : Progressive
Bits/(Pixel*Frame)                       : 0.060
Stream size                              : 867 MiB (88%)
Writing library                          : x264 core
Encoded date                             : UTC 2014-05-20 19:30:45
Tagged date                              : UTC 2014-05-20 19:58:59
Color primaries                          : BT.709-5, BT.1361, IEC 61966-2-4, SMPTE RP177
Transfer characteristics                 : BT.709-5, BT.1361
Matrix coefficients                      : BT.709-5, BT.1361, IEC 61966-2-4 709, SMPTE RP177

Audio
ID                                       : 2
Format                                   : AAC
Format/Info                              : Advanced Audio Codec
Format profile                           : LC
Codec ID                                 : 40
Duration                                 : 2h 1mn
Bit rate mode                            : Variable
Bit rate                                 : 128 Kbps
Maximum bit rate                         : 179 Kbps
Channel(s)                               : 2 channels
Channel positions                        : Front: L R
Sampling rate                            : 48.0 KHz
Compression mode                         : Lossy
Stream size                              : 111 MiB (11%)
Language                                 : Spanish
Encoded date                             : UTC 2014-05-20 19:30:45
Tagged date                              : UTC 2014-05-20 19:57:53






http://www12.zippyshare.com/v/27535537/file.html
http://www67.zippyshare.com/v/74269602/file.html
http://www10.zippyshare.com/v/77258154/file.html
http://www52.zippyshare.com/v/510627/file.html
http://www22.zippyshare.com/v/60126986/file.html
Lone Survivor [HDRip 720p][Castellano][2013]
10 Puntos Score: 10/10
Visitas: 895 Favoritos: 0
Ver los usuarios que votaron...
1 Comentarios Lone Survivor [HDRip 720p][Castellano][2013]
gracias  amigo
Para dejar un comentario Registrate! o.. eres ya usuario? Accede!