Squatters [DVDRip][Latino][2014]




Dos mundos opuestos entran en confrontación cuando una familia adinerada regresa inesperadamente de vacaciones, y se encuentra a unos vagabundos sin hogar ocupando su casa y sin ninguna intención de abandonarla.



Título original: Squatters
Año: 2014
Duración: 105 min.
País: Estados Unidos
Director: Martin Weisz
Guión: Martin Weisz
Música: Mario Grigorov 
Fotografía: Harold Skinner 
Reparto: Gabriella Wilde, Thomas Dekker, Luke Grimes, Richard Dreyfuss, Nancy Travis
Género:Drama

General
Format                                   : AVI
Format/Info                              : Audio Video Interleave
File size                                : 700 MiB
Duration                                 : 1h 45mn
Overall bit rate                         : 924 Kbps
Recorded date                            : 10-05-2014
Writing application                      : VirtualDubMod 1.5.4.1 (build 2178/release) VirtualDubMod build 2178/release
Original source form/Name                : Movie

Video
ID                                       : 0
Format                                   : MPEG-4 Visual
Format profile                           : Advanced [email protected]
Format settings, BVOP                    : No
Format settings, QPel                    : No
Format settings, GMC                     : No warppoints
Format settings, Matrix                  : Custom
Codec ID                                 : XVID
Codec ID/Hint                            : XviD
Duration                                 : 1h 45mn
Bit rate                                 : 789 Kbps
Width                                    : 640 pixels
Height                                   : 272 pixels
Display aspect ratio                     : 2.35:1
Frame rate                               : 23.976 fps
Color space                              : YUV
Chroma subsampling                       : 4:2:0
Bit depth                                : 8 bits
Scan type                                : Progressive
Compression mode                         : Lossy
Bits/(Pixel*Frame)                       : 0.189
Stream size                              : 598 MiB (85%)
Writing library                          : XviD 64

Audio
ID                                       : 1
Format                                   : MPEG Audio
Format version                           : Version 1
Format profile                           : Layer 3
Mode                                     : Joint stereo
Mode extension                           : MS Stereo
Codec ID                                 : 55
Codec ID/Hint                            : MP3
Duration                                 : 1h 45mn
Bit rate mode                            : Constant
Bit rate                                 : 128 Kbps
Channel(s)                               : 2 channels
Sampling rate                            : 48.0 KHz
Compression mode                         : Lossy
Stream size                              : 97.0 MiB (14%)
Alignment                                : Aligned on interleaves
Interleave, duration                     : 83 ms (2.00 video frames)
Interleave, preload duration             : 504 ms
Writing library                          : LAME3.98r
Encoding settings                        : -m j -V 4 -q 2 -lowpass 17 -b 128
Language                                 : un / Spanish






http://www37.zippyshare.com/v/13512139/file.html
http://www47.zippyshare.com/v/51068039/file.html
http://www27.zippyshare.com/v/76454844/file.html
http://www51.zippyshare.com/v/33592915/file.html
Squatters [DVDRip][Latino][2014]
0 Puntos Score: 0/10
Visitas: 2093 Favoritos: 1
1 Comentarios Squatters [DVDRip][Latino][2014]
descargada muchas gracias por compartir, a ver como esta ojala sea buena
Para dejar un comentario Registrate! o.. eres ya usuario? Accede!