Non-Stop [2014] Sin Escalas BDRip Liam Neeson





- SIN ESCALAS -




- Sinópsis -

Durante el vuelo que se dirige de Nueva York a Londres, el policía Bill Marks recibe un mensaje de texto anónimo en el que se le avisa que cada 20 minutos un pasajero del avión morirá. Existe una posibilidad para que esto no ocurra, el misterioso emisor de los mensajes asegura que los asesinatos cesarán cuando le entreguen 100 millones de dólares en su número de cuenta.



-TRAILER-





-CAPTURAS-




-DESCARGA-


MEGA
1 link 





Contraseña: Ray_20




-SUBTITULOS-

http://www.subdivx.com/bajar.php?id=383681&u=7







Non-Stop [2014] Sin Escalas BDRip Liam Neeson
45 Puntos Score: 9/10
Visitas: 14350 Favoritos: 9
Ver los usuarios que votaron...
22 Comentarios Non-Stop [2014] Sin Escalas BDRip Liam Neeson
Al fin loco, mil grcias +10
Gracias, se ve buena....
no se cargan los links
viejo los links no cargan.... ??
el link no funciona...
Gracias hombre  


+10
@Flux @israel_ic gracias por los puntines  
formato y peso amigo
@tower1990 1.04 GB formato AVI se ve muy bien  
amigo solo kisiera ke me dijeras si los subtitulos estan bien??para esta version si es asi y no tienen niongun error ni incoherencia te doy mis 5 de hoy gracias @Ray_20
garcias bajando + 10
Genial, para ver con la manada, gracias.  
por fin gracias !!
Gracias la estaba esperando ya la descargue y esta muy buena  
Es 720p? no tenes mas info?
@Price3006 los subtitulos los cheko muy bien antes de ponerlo obvio no voy a poner unos que esten mal...
@picasso
Info:
Format : AVI
Format/Info : Audio Video Interleave
File size : 1.04 GiB
Duration : 1h 46mn
Overall bit rate : 1 402 Kbps
Movie name : RARBG.COM - Non-Stop.2014.BRRip.XviD.MP3-RARBG
Writing library : VirtualDub build 35491/release
Comment : RARBG.COM - Non-Stop.2014.BRRip.XviD.MP3-RARBG

Video
ID : 0
Format : MPEG-4 Visual
Format profile : [email protected]
Format settings, BVOP : No
Format settings, QPel : No
Format settings, GMC : No warppoints
Format settings, Matrix : Default (H.263)
Codec ID : XVID
Codec ID/Hint : XviD
Duration : 1h 46mn
Bit rate : 1 198 Kbps
Width : 720 pixels
Height : 300 pixels
Display aspect ratio : 2.40:1
Frame rate : 23.976 fps
Color space : YUV
Chroma subsampling : 4:2:0
Bit depth : 8 bits
Scan type : Progressive
Compression mode : Lossy
Bits/(Pixel*Frame) : 0.231
Stream size : 913 MiB (85%)
Writing library : Lavc55.64.100

Audio
ID : 1
Format : MPEG Audio
Format version : Version 1
Format profile : Layer 3
Mode : Joint stereo
Codec ID : 55
Codec ID/Hint : MP3
Duration : 1h 46mn
Bit rate mode : Constant
Bit rate : 192 Kbps
Channel(s) : 2 channels
Sampling rate : 48.0 KHz
Compression mode : Lossy
Stream size : 146 MiB (14%)
Alignment : Aligned on interleaves
Interleave, duration : 24 ms (0.58 video frame)
Interleave, preload duration : 504 ms
@ghostote esperando puntos  
+10 EXCELENTE MUCHAS GRACIAS GRAN PEL?
@liitho50 gracias por los puntos  
Para dejar un comentario Registrate! o.. eres ya usuario? Accede!