Gunner120
"No subo más nada,salvo por supuesto,puntuar :)"

Metegol Latino 720p







Video
ID                                       : 1
Format                                 : MPEG-4 Visual
Format profile                           : [email protected]
Format settings, BVOP                          : No
Format settings, QPel                            : No
Format settings, GMC               : No warppoints
Format settings, Matrix           : Default (H.263)
Codec ID                 : V_MS/VFW/FOURCC / XVID
Codec ID/Hint                            : XviD
Duration                                 : 1h 46mn
Bit rate                                 : 3 415 Kbps
Width                                    : 1 280 pixels
Height                                   : 534 pixels
Display aspect ratio                     : 2.40:1
Frame rate mode                          : Constant
Frame rate                               : 23.976 fps
Color space                              : YUV
Chroma subsampling                       : 4:2:0
Bit depth                                : 8 bits
Scan type                                : Progressive
Compression mode                         : Lossy
Bits/(Pixel*Frame)                       : 0.208
Stream size                              : 2.54 GiB (83%)
Writing library                          : Lavc55.55.104
Default                                  : Yes
Forced                                   : No

Audio
ID                                       : 2
Format                                   : AC-3
Format/Info                              : Audio Coding 3
Mode extension                           : CM (complete main)
Format settings, Endianness              : Big
Codec ID                                 : A_AC3
Duration                                 : 1h 46mn
Bit rate mode                            : Constant
Bit rate                                 : 640 Kbps
Channel count                            : 6 channels
Channel positions                        : Front: L C R, Side: L R, LFE
Sampling rate                            : 48.0 KHz
Bit depth                                : 16 bits
Compression mode                         : Lossy
Stream size                              : 488 MiB (15%)
Title                                    : Audio Argentino
Default                                  : Yes
Forced                                   : No

Text
ID                                       : 3
Format                                   : UTF-8
Codec ID                                 : S_TEXT/UTF8
Codec ID/Info                            : UTF-8 Plain Text
Title                                    : Subtitulos Forzados
Default                                  : Yes
Forced                                   : Yes



Peso De Los Rar: 3.07gb

Metegol Latino 720p
30 Puntos Score: 10/10
Visitas: 4940 Favoritos: 4
Ver los usuarios que votaron...
11 Comentarios Metegol Latino 720p
jajajaja se ve buena la pelicula.. la descargare haber que honda
buena ..gracias
Estupendo aporte, gracias por compartir
Saludos  
Estupendo, muchas gracias.
@partyone Espero que haya sido de tu agrado  
gracias, pero el audio es argentino , no latino
Para dejar un comentario Registrate! o.. eres ya usuario? Accede!