Queen Rock Montreal Live Aid|1080p|BluRay|




Probablemente el mejor registro de Queen en vivo, tanto en imagen como sonido y por sobre todo, las interpretaciones de cada canción.
Rock Montreal nos lleva a los conciertos de los días 24 y 25 de noviembre de 1981. Lo que vemos es una mixtura de las 2 noches mezcladas en un solo show con varios éxitos de la banda hasta esa fecha. La pulcritud con que se filmó y la excelente condición que alcanzó la prodigiosa voz de Freddie en estos show son de una frescura que pareciera que se grabó ayer. Lamentablemente se omiten 2 canciones de las cuales solo existe el registro en audio y aparecen en la respectiva edición en CD/vinilo.
Temas como Bohemian Rhapsody, Under Pressure (primera interpretación en vivo de ella), Another One Bites The Dust y Crazy Little Thing Called Love, entre otras, jamás se escucharon mejor que aquí.
En cuanto a los extras, la presentación de Queen en Live Aid es francamente fantástica. No está en la calidad propia del formato, pero aún así se disfruta. Incluyen además entrevistas, algunos ensayos para Live Aid y un reporte de TV norteamericano sobre Queen en 1982.
Si bien la imagen del concierto principal está un poco cargado al amarillo, no afecta el resultado final: un excelente blu-ray.


Lista de temas

We Will Rock You (fast) (May)
Let Me Entertain You (Mercury)
Play the Game (Mercury)
Somebody to Love (Mercury)
Killer Queen (Mercury)
I'm in Love With My Car (Taylor)
Get Down, Make Love (Mercury)
Save Me (May)
Now I'm Here (May)
Dragon Attack (May)
Now I'm Here (reprise) (May)
Love of My Life (Mercury)
Under Pressure (Queen/Bowie)
Keep Yourself Alive (with impromptu jam before the song) (May)
Drum Solo/Tympani Solo (Queen/Taylor)
Guitar Solo/Guitar and Drum Duel (May)
Crazy Little Thing Called Love (Mercury)
Jailhouse Rock (Lieber, Stoller)
Bohemian Rhapsody (Mercury)
Tie Your Mother Down (May)
Another One Bites the Dust (Deacon)
Sheer Heart Attack (Taylor)
We Will Rock You (May)
We Are the Champions (Mercury)
God Save the Queen (tape) (arr. May)



Video
ID : 1
Format : VC-1
Format profile : [email protected]
Codec ID : WVC1
Codec ID/Hint : Microsoft
Duration : 1h 35mn
Width : 1 920 pixels
Height : 1 080 pixels
Display aspect ratio : 16:9
Frame rate : 23.976 fps
Chroma subsampling : 4:2:0
Bit depth : 8 bits
Scan type : Progressive
Compression mode : Lossy

Audio #1
ID : 2
Format : PCM
Codec ID : A_PCM/INT/LIT
Duration : 1h 35mn
Bit rate mode : Constant
Channel(s) : 2 channels
Sampling rate : 48.0 KHz
Bit depth : 24 bits

Audio #2
ID : 3
Format : DTS
Format/Info : Digital Theater Systems
Format profile : HRA / Core
Muxing mode : Header stripping
Codec ID : A_DTS
Duration : 1h 35mn
Bit rate mode : Constant
Bit rate : 3 019 Kbps / 1 510 Kbps
Channel(s) : 6 channels
Channel positions : Front: L C R, Side: L R, LFE
Sampling rate : 96.0 KHz / 48.0 KHz
Bit depth : 24 bits
Compression mode : Lossy
Stream size : 2.01 GiB (12%)

Audio #3
ID : 4
Format : AC-3
Format/Info : Audio Coding 3
Mode extension : CM (complete main)
Muxing mode : Header stripping
Codec ID : A_AC3
Duration : 1h 35mn
Bit rate mode : Constant
Bit rate : 192 Kbps
Channel(s) : 2 channels
Channel positions : Front: L R
Sampling rate : 48.0 KHz
Bit depth : 16 bits
Compression mode : Lossy
Stream size : 131 MiB (1%)






















18 Partes de 976.56MB
1 Parte de 256.84MB

Sin Contraseña




Queen Rock Montreal Live Aid|1080p|BluRay|
20 Puntos Score: 10/10
Visitas: 3507 Favoritos: 4
Ver los usuarios que votaron...
16 Comentarios Queen Rock Montreal Live Aid|1080p|BluRay|
Tiene subs? y si no tiene ponlos please
perdona mi ignoracia pero poruqe hay 3 pistas de audio?
en los dvd o bluray, puedes seleccionar el audio pero dependiendo del equipo que poseas para poder decodificarlo, el audio en DTS simplemente fabuloso. Thanks.
Cita rodolfo12: Mostrar
CON EL MKV TOOLVIX SE LAS PODES SACAR A LAS PISTAS Q NO QUIERAS
excelente trabajo. felicitaciones
@hddmat2003 @ericprydz mi pregunta era cual es la diferencia entre las 3 pistas de audio?
buen aporte gracias
@rodolfo12 una pista es para la formula 1, la otra para bailar salsa y la pista restante es una pista de aterrizaje.  Abrazo.
subilo a mega capo, es muy buen aporte
@ericprydz viejo pudes poner los links sueltos?
Muchas gracias muy buen aporte
Cita rodolfo12: Mostrar
excelente aporte!!!
Cita rodolfo12: Mostrar
jojo muy bueno  
amigo @ericprydz podrias volver a subir los links porfa ya q estan caidos saludos y gracias
Para dejar un comentario Registrate! o.. eres ya usuario? Accede!