Lizzie Borden [DVDRip][VOSE][2013]




La verdadera historia de Lizzie Borden, una joven juzgada y absuelta en 1892 de los asesinatos de su padre y su madrastra.



Título: Lizzie Borden
Año : 2013
Pais : Estados Unidos
Duracion: 1H con 25 min. Aproximado.
Director : Nick Gomez
Musica : Karl Preusser
Genero: Drama | Crimen. Siglo XIX. Basado en hechos reales. Telefilm
Productora : Sony Pictures Television
Reparto : Christina Ricci, Clea DuVall, Billy Campbell, Jennifer Kydd, John Maclaren, Brett Donahue, Andria Wilson, Kirstin Howell, Ciaran MacGillivray

General
Format                                   : AVI
Format/Info                              : Audio Video Interleave
File size                                : 924 MiB
Duration                                 : 1h 27mn
Overall bit rate                         : 1 483 Kbps
Writing application                      : Lavf52.84.0

Video
ID                                       : 0
Format                                   : MPEG-4 Visual
Codec ID                                 : FMP4
Duration                                 : 1h 27mn
Bit rate                                 : 1 343 Kbps
Width                                    : 720 pixels
Height                                   : 400 pixels
Display aspect ratio                     : 16:9
Frame rate                               : 24.000 fps
Color space                              : YUV
Chroma subsampling                       : 4:2:0
Compression mode                         : Lossy
Bits/(Pixel*Frame)                       : 0.194
Stream size                              : 836 MiB (91%)

Audio
ID                                       : 1
Format                                   : MPEG Audio
Format version                           : Version 1
Format profile                           : Layer 3
Mode                                     : Joint stereo
Mode extension                           : MS Stereo
Codec ID                                 : 55
Codec ID/Hint                            : MP3
Duration                                 : 1h 27mn
Bit rate mode                            : Constant
Bit rate                                 : 128 Kbps
Channel(s)                               : 2 channels
Sampling rate                            : 48.0 KHz
Compression mode                         : Lossy
Stream size                              : 79.7 MiB (9%)
Alignment                                : Aligned on interleaves
Interleave, duration                     : 24 ms (0.58 video frame)
Writing library                          : LAME3.98.4






http://www50.zippyshare.com/v/17127442/file.html
http://www54.zippyshare.com/v/86869312/file.html
http://www37.zippyshare.com/v/62961627/file.html
http://www49.zippyshare.com/v/2779066/file.html
http://www38.zippyshare.com/v/33612038/file.html
[/size]
Lizzie Borden [DVDRip][VOSE][2013]
25 Puntos Score: 8.3/10
Visitas: 1615 Favoritos: 3
Ver los usuarios que votaron...
3 Comentarios Lizzie Borden [DVDRip][VOSE][2013]
me encanta Christina Ricci y no conocia esta peli graciass
Muchas gracias por tu aporte  
Para dejar un comentario Registrate! o.. eres ya usuario? Accede!