A Night in Old Mexico [BRSCR][Castellano][2014]




Obligado a dejar su tierra y su hogar, el cantautor texano Red Bovie (Robert Duvall) se embarca en un viaje maravilloso con su nieto Gally (Jeremy Irvine), cuyo padre nunca se ha llevado del todo bien con Red. Ahora está a punto de comenzar una gran aventura en el Viejo México...



Título: Una noche en el viejo México
Título original: A night in old Mexico
Dirección: Emilio Aragón
País: Estados Unidos
Año: 2013
Fecha de estreno: 09/05/2014
Duración: 104 min
Género: Drama
Calificación: No recomendada para menores de 7 años
Reparto: Robert Duvall, Jeremy Irvine, Angie Cepeda, Luis Tosar, Joaquín Cosio
Distribuidora: No disponible
Productora: Maxmedia, Instituto de la Cinematografía y de las Artes Audiovisuales (ICAA), Radio Televisión Española (RTVE), Prospect Park

General
Format                                   : MPEG-4
Format profile                           : Base Media
Codec ID                                 : isom
File size                                : 619 MiB
Duration                                 : 1h 44mn
Overall bit rate mode                    : Variable
Overall bit rate                         : 832 Kbps
Writing application                      : Lavf54.63.104

Video
ID                                       : 1
Format                                   : AVC
Format/Info                              : Advanced Video Codec
Format profile                           : [email protected]
Format settings, CABAC                   : Yes
Format settings, ReFrames                : 4 frames
Codec ID                                 : avc1
Codec ID/Info                            : Advanced Video Coding
Duration                                 : 1h 44mn
Bit rate                                 : 750 Kbps
Width                                    : 720 pixels
Height                                   : 304 pixels
Display aspect ratio                     : 2.35:1
Frame rate mode                          : Constant
Frame rate                               : 23.976 fps
Color space                              : YUV
Chroma subsampling                       : 4:2:0
Bit depth                                : 8 bits
Scan type                                : Progressive
Bits/(Pixel*Frame)                       : 0.143
Stream size                              : 555 MiB (90%)
Writing library                          : x264 core 120 r2151 a3f4407
Encoding settings                        : cabac=1 / ref=3 / deblock=1:0:0 / analyse=0x3:0x113 / me=hex / subme=7 / psy=1 / psy_rd=1.00:0.00 / mixed_ref=1 / me_range=16 / chroma_me=1 / trellis=1 / 8x8dct=1 / cqm=0 / deadzone=21,11 / fast_pskip=1 / chroma_qp_offset=-2 / threads=16 / sliced_threads=0 / nr=0 / decimate=1 / interlaced=0 / bluray_compat=0 / constrained_intra=0 / bframes=3 / b_pyramid=2 / b_adapt=1 / b_bias=0 / direct=1 / weightb=1 / open_gop=0 / weightp=2 / keyint=25 / keyint_min=2 / scenecut=40 / intra_refresh=0 / rc_lookahead=25 / rc=abr / mbtree=1 / bitrate=750 / ratetol=1.0 / qcomp=0.60 / qpmin=0 / qpmax=69 / qpstep=4 / ip_ratio=1.40 / aq=1:1.00

Audio
ID                                       : 2
Format                                   : AAC
Format/Info                              : Advanced Audio Codec
Format profile                           : LC
Codec ID                                 : 40
Duration                                 : 1h 44mn
Duration_LastFrame                       : -21ms
Bit rate mode                            : Variable
Bit rate                                 : 82.8 Kbps
Maximum bit rate                         : 128 Kbps
Channel(s)                               : 2 channels
Channel positions                        : Front: L R
Sampling rate                            : 24.0 KHz
Compression mode                         : Lossy
Stream size                              : 61.6 MiB (10%)






http://www49.zippyshare.com/v/7034199/file.html
http://www38.zippyshare.com/v/63671631/file.html
http://www4.zippyshare.com/v/41585940/file.html
http://www42.zippyshare.com/v/73231791/file.html
[/size]
A Night in Old Mexico [BRSCR][Castellano][2014]
0 Puntos Score: 0/10
Visitas: 23378 Favoritos: 2
1 Comentarios A Night in Old Mexico [BRSCR][Castellano][2014]
Para dejar un comentario Registrate! o.. eres ya usuario? Accede!