Squatters [HDRip 720p][VOSE][2014]




Dos mundos opuestos entran en confrontación cuando una familia adinerada regresa inesperadamente de vacaciones, y se encuentra a unos vagabundos sin hogar ocupando su casa y sin ninguna intención de abandonarla.



Título original: Squatters
Año: 2014
Duración: 105 min.
País: Estados Unidos
Director: Martin Weisz
Guión: Martin Weisz
Música: Mario Grigorov 
Fotografía: Harold Skinner 
Reparto: Gabriella Wilde, Thomas Dekker, Luke Grimes, Richard Dreyfuss, Nancy Travis
Género:Drama

General
Format                                   : MPEG-4
Format profile                           : Base Media / Version 2
Codec ID                                 : mp42
File size                                : 994 MiB
Duration                                 : 1h 45mn
Overall bit rate mode                    : Variable
Overall bit rate                         : 1 312 Kbps
Album                                    : Squatters 2014 DVDR4 LATINO
Encoded date                             : UTC 2014-05-08 05:23:20
Tagged date                              : UTC 2014-05-08 05:43:15
Writing application                      : DVDFab

Video
ID                                       : 1
Format                                   : AVC
Format/Info                              : Advanced Video Codec
Format profile                           : [email protected]
Format settings, CABAC                   : Yes
Format settings, ReFrames                : 1 frame
Codec ID                                 : avc1
Codec ID/Info                            : Advanced Video Coding
Duration                                 : 1h 45mn
Bit rate mode                            : Variable
Bit rate                                 : 1 179 Kbps
Width                                    : 1 280 pixels
Height                                   : 544 pixels
Display aspect ratio                     : 2.35:1
Frame rate mode                          : Variable
Frame rate                               : 23.976 fps
Minimum frame rate                       : 23.974 fps
Maximum frame rate                       : 23.981 fps
Color space                              : YUV
Chroma subsampling                       : 4:2:0
Bit depth                                : 8 bits
Scan type                                : Progressive
Bits/(Pixel*Frame)                       : 0.071
Stream size                              : 893 MiB (90%)
Writing library                          : x264 core
Encoded date                             : UTC 2014-05-08 05:23:20
Tagged date                              : UTC 2014-05-08 05:43:11
Color primaries                          : BT.709-5, BT.1361, IEC 61966-2-4, SMPTE RP177
Transfer characteristics                 : BT.709-5, BT.1361
Matrix coefficients                      : BT.709-5, BT.1361, IEC 61966-2-4 709, SMPTE RP177

Audio
ID                                       : 2
Format                                   : AAC
Format/Info                              : Advanced Audio Codec
Format profile                           : LC
Codec ID                                 : 40
Duration                                 : 1h 45mn
Bit rate mode                            : Variable
Bit rate                                 : 128 Kbps
Maximum bit rate                         : 203 Kbps
Channel(s)                               : 2 channels
Channel positions                        : Front: L R
Sampling rate                            : 48.0 KHz
Compression mode                         : Lossy
Stream size                              : 96.9 MiB (10%)
Language                                 : English
Encoded date                             : UTC 2014-05-08 05:23:20
Tagged date                              : UTC 2014-05-08 05:42:56

Text
ID                                       : 3
Format                                   : Apple text
Codec ID                                 : text
Duration                                 : 1h 45mn
Bit rate mode                            : Variable
Bit rate                                 : 0 bps
Stream size                              : 375 Bytes (0%)
Encoded date                             : UTC 2014-05-08 05:23:20
Tagged date                              : UTC 2014-05-08 05:43:15






http://www64.zippyshare.com/v/31429745/file.html
http://www62.zippyshare.com/v/73824279/file.html
http://www71.zippyshare.com/v/75169766/file.html
http://www15.zippyshare.com/v/19827832/file.html
http://www57.zippyshare.com/v/72893045/file.html
[/size]
Squatters [HDRip 720p][VOSE][2014]
20 Puntos Score: 10/10
Visitas: 2257 Favoritos: 0
Ver los usuarios que votaron...
1 Comentarios Squatters [HDRip 720p][VOSE][2014]
Para dejar un comentario Registrate! o.. eres ya usuario? Accede!