Squatters [DVDRip][VOSE][2014]




Dos mundos opuestos entran en confrontación cuando una familia adinerada regresa inesperadamente de vacaciones, y se encuentra a unos vagabundos sin hogar ocupando su casa y sin ninguna intención de abandonarla.



Título original: Squatters
Año: 2014
Duración: 105 min.
País: Estados Unidos
Director: Martin Weisz
Guión: Martin Weisz
Música: Mario Grigorov 
Fotografía: Harold Skinner 
Reparto: Gabriella Wilde, Thomas Dekker, Luke Grimes, Richard Dreyfuss, Nancy Travis
Género:Drama

General
Format                                   : AVI
Format/Info                              : Audio Video Interleave
File size                                : 919 MiB
Duration                                 : 1h 45mn
Overall bit rate                         : 1 214 Kbps
Writing application                      : Lavf52.84.0

Video
ID                                       : 0
Format                                   : MPEG-4 Visual
Codec ID                                 : FMP4
Duration                                 : 1h 45mn
Bit rate                                 : 1 073 Kbps
Width                                    : 720 pixels
Height                                   : 312 pixels
Display aspect ratio                     : 2.35:1
Frame rate                               : 24.000 fps
Color space                              : YUV
Chroma subsampling                       : 4:2:0
Compression mode                         : Lossy
Bits/(Pixel*Frame)                       : 0.199
Stream size                              : 813 MiB (88%)

Audio
ID                                       : 1
Format                                   : MPEG Audio
Format version                           : Version 1
Format profile                           : Layer 3
Mode                                     : Joint stereo
Mode extension                           : MS Stereo
Codec ID                                 : 55
Codec ID/Hint                            : MP3
Duration                                 : 1h 45mn
Bit rate mode                            : Constant
Bit rate                                 : 128 Kbps
Channel(s)                               : 2 channels
Sampling rate                            : 48.0 KHz
Compression mode                         : Lossy
Stream size                              : 97.0 MiB (11%)
Alignment                                : Aligned on interleaves
Interleave, duration                     : 24 ms (0.58 video frame)
Writing library                          : LAME3.98.4






http://www47.zippyshare.com/v/75929632/file.html
http://www38.zippyshare.com/v/94074986/file.html
http://www45.zippyshare.com/v/44984936/file.html
http://www16.zippyshare.com/v/67108074/file.html
http://www64.zippyshare.com/v/99938115/file.html
[/size]
Squatters [DVDRip][VOSE][2014]
0 Puntos Score: 0/10
Visitas: 1017 Favoritos: 0
0 Comentarios Squatters [DVDRip][VOSE][2014]
Este post no tiene comentarios. Sea el primero!
Para dejar un comentario Registrate! o.. eres ya usuario? Accede!