Nueva Vida en Nueva York [BRSCR][Castellano][2014]




La historia de Xavier (Romain Duris) que comenzó en 'Una casa de locos' y siguó cinco años más tarde en 'Las muñecas rusas', se convierte en una trilogía con la última entrega: 'Nueva vida en Nueva York'. Han pasado los años y el joven ha dejado de lado la universidad para convertirse, a sus cuarenta años, en un padre de dos pequeñines.
Aunque parecía que era el momento en el que se vida se tornaría simple y aburrida, él todavía sigue encontrándola sumamente complicada. Cuando la madre de sus hijos se ve obligada a trasladarse a trabajar a Nueva York todo parece cambiar. Las cosas que antes eran tan importantes ahora parecen no tener sentido. Su mayor preocupación ahora es que sus retoños no crezcan sin la ternura y los cuidados de su madre, por lo que decide trasladarse y mudarse con ella.



Título: Nueva vida en Nueva York
Título original: Casse-tête chinois
Dirección: Cédric Klapisch
País: Francia
Año: 2013
Fecha de estreno: 16/05/2014
Duración: 117 min
Género: Drama, Romance, Comedia
Calificación: Apta para todos los públicos
Reparto: Kelly Reilly, Audrey Tautou, Sandrine Holt, Cécile De France, Romain Duris
Web: www.cassetetechinois-lefilm.fr
Distribuidora: A Contracorriente Films
Productora: Compagnie Cinématographique de France, Panache Productions, Ce Qui Me Meut Motion Pictures

General
Format                                   : MPEG-4
Format profile                           : Base Media
Codec ID                                 : isom
File size                                : 704 MiB
Duration                                 : 1h 57mn
Overall bit rate mode                    : Variable
Overall bit rate                         : 839 Kbps
Writing application                      : Lavf54.63.104

Video
ID                                       : 1
Format                                   : AVC
Format/Info                              : Advanced Video Codec
Format profile                           : [email protected]
Format settings, CABAC                   : Yes
Format settings, ReFrames                : 4 frames
Codec ID                                 : avc1
Codec ID/Info                            : Advanced Video Coding
Duration                                 : 1h 57mn
Bit rate                                 : 750 Kbps
Width                                    : 720 pixels
Height                                   : 384 pixels
Display aspect ratio                     : 1.85:1
Frame rate mode                          : Variable
Frame rate                               : 24.000 fps
Minimum frame rate                       : 12.000 fps
Maximum frame rate                       : 24.000 fps
Color space                              : YUV
Chroma subsampling                       : 4:2:0
Bit depth                                : 8 bits
Scan type                                : Progressive
Bits/(Pixel*Frame)                       : 0.113
Stream size                              : 631 MiB (90%)
Writing library                          : x264 core 120 r2151 a3f4407
Encoding settings                        : cabac=1 / ref=3 / deblock=1:0:0 / analyse=0x3:0x113 / me=hex / subme=7 / psy=1 / psy_rd=1.00:0.00 / mixed_ref=1 / me_range=16 / chroma_me=1 / trellis=1 / 8x8dct=1 / cqm=0 / deadzone=21,11 / fast_pskip=1 / chroma_qp_offset=-2 / threads=16 / sliced_threads=0 / nr=0 / decimate=1 / interlaced=0 / bluray_compat=0 / constrained_intra=0 / bframes=3 / b_pyramid=2 / b_adapt=1 / b_bias=0 / direct=1 / weightb=1 / open_gop=0 / weightp=2 / keyint=25 / keyint_min=2 / scenecut=40 / intra_refresh=0 / rc_lookahead=25 / rc=abr / mbtree=1 / bitrate=750 / ratetol=1.0 / qcomp=0.60 / qpmin=0 / qpmax=69 / qpstep=4 / ip_ratio=1.40 / aq=1:1.00

Audio
ID                                       : 2
Format                                   : AAC
Format/Info                              : Advanced Audio Codec
Format profile                           : LC
Codec ID                                 : 40
Duration                                 : 1h 57mn
Duration_LastFrame                       : -24ms
Bit rate mode                            : Variable
Bit rate                                 : 82.7 Kbps
Maximum bit rate                         : 128 Kbps
Channel(s)                               : 2 channels
Channel positions                        : Front: L R
Sampling rate                            : 24.0 KHz
Compression mode                         : Lossy
Stream size                              : 69.4 MiB (10%)






http://www67.zippyshare.com/v/58136220/file.html
http://www56.zippyshare.com/v/32830657/file.html
http://www6.zippyshare.com/v/8037406/file.html
http://www4.zippyshare.com/v/65423444/file.html
[/size]
Nueva Vida en Nueva York [BRSCR][Castellano][2014]
0 Puntos Score: 0/10
Visitas: 1879 Favoritos: 1
0 Comentarios Nueva Vida en Nueva York [BRSCR][Castellano][2014]
Este post no tiene comentarios. Sea el primero!
Para dejar un comentario Registrate! o.. eres ya usuario? Accede!