Not Safe For Work [HDRip 720p][Castellano][2014]




Un joven asistente de abogado se verá atrapado en una oficina con un asesino que tiene la misión de destruir unos archivos para otra corporación.



TÍTULO ORIGINAL: Not Safe for Work
AÑO: 2014
DURACIÓN: 89 min.
PAÍS: [Estados Unidos]
DIRECTOR: Joe Johnston
REPARTO: Max Minghella, JJ Feild, Eloise Mumford, Christian Clemenson, Tom Gallop
GÉNERO: Thriller

General
Format                                   : MPEG-4
Format profile                           : Base Media / Version 2
Codec ID                                 : mp42
File size                                : 979 MiB
Duration                                 : 1h 11mn
Overall bit rate mode                    : Variable
Overall bit rate                         : 1 924 Kbps
Album                                    : NOT_SAFE_FOR_WORK
Encoded date                             : UTC 2014-05-09 23:54:10
Tagged date                              : UTC 2014-05-10 00:15:41
Writing application                      : DVDFab

Video
ID                                       : 1
Format                                   : AVC
Format/Info                              : Advanced Video Codec
Format profile                           : [email protected]
Format settings, CABAC                   : Yes
Format settings, ReFrames                : 1 frame
Codec ID                                 : avc1
Codec ID/Info                            : Advanced Video Coding
Duration                                 : 1h 11mn
Bit rate mode                            : Variable
Bit rate                                 : 1 793 Kbps
Width                                    : 1 280 pixels
Height                                   : 720 pixels
Display aspect ratio                     : 16:9
Frame rate mode                          : Constant
Frame rate                               : 25.000 fps
Color space                              : YUV
Chroma subsampling                       : 4:2:0
Bit depth                                : 8 bits
Scan type                                : Progressive
Bits/(Pixel*Frame)                       : 0.078
Stream size                              : 913 MiB (93%)
Writing library                          : x264 core
Encoded date                             : UTC 2014-05-09 23:54:10
Tagged date                              : UTC 2014-05-10 00:15:37
Color primaries                          : BT.709-5, BT.1361, IEC 61966-2-4, SMPTE RP177
Transfer characteristics                 : BT.709-5, BT.1361
Matrix coefficients                      : BT.709-5, BT.1361, IEC 61966-2-4 709, SMPTE RP177

Audio
ID                                       : 2
Format                                   : AAC
Format/Info                              : Advanced Audio Codec
Format profile                           : LC
Codec ID                                 : 40
Duration                                 : 1h 11mn
Bit rate mode                            : Variable
Bit rate                                 : 128 Kbps
Maximum bit rate                         : 168 Kbps
Channel(s)                               : 2 channels
Channel positions                        : Front: L R
Sampling rate                            : 48.0 KHz
Compression mode                         : Lossy
Stream size                              : 65.1 MiB (7%)
Language                                 : Spanish
Encoded date                             : UTC 2014-05-09 23:54:10
Tagged date                              : UTC 2014-05-10 00:15:13

Text
ID                                       : 3
Format                                   : Apple text
Codec ID                                 : text
Duration                                 : 1h 11mn
Bit rate mode                            : Variable
Bit rate                                 : 1 bps
Stream size                              : 495 Bytes (0%)
Encoded date                             : UTC 2014-05-09 23:54:10
Tagged date                              : UTC 2014-05-10 00:15:41




[/size]

http://www55.zippyshare.com/v/8675300/file.html
http://www63.zippyshare.com/v/5953083/file.html
http://www16.zippyshare.com/v/91409907/file.html
http://www37.zippyshare.com/v/72384149/file.html
http://www30.zippyshare.com/v/38398835/file.html
[/size]
Not Safe For Work [HDRip 720p][Castellano][2014]
0 Puntos Score: 0/10
Visitas: 1289 Favoritos: 0
0 Comentarios Not Safe For Work [HDRip 720p][Castellano][2014]
Este post no tiene comentarios. Sea el primero!
Para dejar un comentario Registrate! o.. eres ya usuario? Accede!