Honour [HDRip][VOSE][2014]




Mona, una chica británica y musulmana, se da a la fuga cuando su familia se entera de sus planes para huir con su novio Punjabí. En desesperación para evitar una pérdida de honor, la familia contrata un cazarrecompensas para encontrarla.



Título: Honour
Genero : Thrillers
Directores : Shan Khan
Escritores : Shan Khan
Año: 2014
Reparto : Aiysha HartPaddy ConsidineFaraz AyubShubham SarafHarvey VirdiNikesh PatelBen BishopPaulina BonevaNick ChoppingSimon ColemanAmiera DarwishCaitlin JosephAaron NeilWilliam RuaneAdam Smith

General
Format                                   : AVI
Format/Info                              : Audio Video Interleave
Format profile                           : OpenDML
File size                                : 1.28 GiB
Duration                                 : 1h 39mn
Overall bit rate                         : 1 840 Kbps
Writing application                      : Lavf52.84.0

Video
ID                                       : 0
Format                                   : MPEG-4 Visual
Codec ID                                 : FMP4
Duration                                 : 1h 39mn
Bit rate                                 : 1 695 Kbps
Width                                    : 864 pixels
Height                                   : 440 pixels
Display aspect ratio                     : 1.964
Frame rate                               : 29.970 fps
Color space                              : YUV
Chroma subsampling                       : 4:2:0
Compression mode                         : Lossy
Bits/(Pixel*Frame)                       : 0.149
Stream size                              : 1.18 GiB (92%)

Audio
ID                                       : 1
Format                                   : MPEG Audio
Format version                           : Version 1
Format profile                           : Layer 3
Mode                                     : Joint stereo
Mode extension                           : MS Stereo
Codec ID                                 : 55
Codec ID/Hint                            : MP3
Duration                                 : 1h 39mn
Bit rate mode                            : Constant
Bit rate                                 : 128 Kbps
Channel(s)                               : 2 channels
Sampling rate                            : 48.0 KHz
Compression mode                         : Lossy
Stream size                              : 91.5 MiB (7%)
Alignment                                : Aligned on interleaves
Interleave, duration                     : 24 ms (0.72 video frame)
Writing library                          : LAME3.98.4






http://www72.zippyshare.com/v/52759438/file.html
http://www66.zippyshare.com/v/43725280/file.html
http://www13.zippyshare.com/v/1374491/file.html
http://www34.zippyshare.com/v/63272928/file.html
http://www66.zippyshare.com/v/68286181/file.html
http://www78.zippyshare.com/v/56388171/file.html
http://www40.zippyshare.com/v/33667863/file.html
[/size]
Honour [HDRip][VOSE][2014]
20 Puntos Score: 10/10
Visitas: 1821 Favoritos: 0
Ver los usuarios que votaron...
2 Comentarios Honour [HDRip][VOSE][2014]
interesante la sinopsis muchas gracias por la pelicula
Para dejar un comentario Registrate! o.. eres ya usuario? Accede!