The amazing Spider-man 2 [DVDRipScr][Latino][Mega]





La pelicula esta en Español Latino comprobado, la Calidad del video es bastante aceptable (Mucho mejor que las grabadas del Cine), la calidad de audio es como la de las peliculas CAM

General

Format                                   : MPEG-4
Format profile                           : Base Media
Codec ID                                 : isom
File size                                : 817 MiB
Duration                                 : 2h 16mn
Overall bit rate                         : 834 Kbps
Album                                    : THE AMAZING SPIDERMAN 2 2014
Writing application                      : Lavf54.63.104

Video
ID                                       : 1
Format                                   : AVC
Format/Info                              : Advanced Video Codec
Format profile                           : [email protected]
Format settings, CABAC                   : Yes
Format settings, ReFrames                : 4 frames
Codec ID                                 : avc1
Codec ID/Info                            : Advanced Video Coding
Duration                                 : 2h 16mn
Bit rate                                 : 750 Kbps
Width                                    : 720 pixels
Height                                   : 288 pixels
Display aspect ratio                     : 2.500
Frame rate mode                          : Constant
Frame rate                               : 23.976 fps
Color space                              : YUV
Chroma subsampling                       : 4:2:0
Bit depth                                : 8 bits
Scan type                                : Progressive
Bits/(Pixel*Frame)                       : 0.151
Stream size                              : 732 MiB (90%)
Writing library                          : x264 core 120 r2151 a3f4407

Audio
ID                                       : 2
Format                                   : AAC
Format/Info                              : Advanced Audio Codec
Format profile                           : LC
Codec ID                                 : 40
Duration                                 : 2h 16mn
Duration_LastFrame                       : -21ms
Bit rate mode                            : Variable
Bit rate                                 : 82.7 Kbps
Maximum bit rate                         : 128 Kbps
Channel(s)                               : 2 channels
Channel positions                        : Front: L R
Sampling rate                            : 24.0 KHz
Compression mode                         : Lossy
Stream size                              : 81.0 MiB (10%)











vagoslatino.net
The amazing Spider-man 2 [DVDRipScr][Latino][Mega]
35 Puntos Score: 8.8/10
Visitas: 21052 Favoritos: 9
Ver los usuarios que votaron...
Más del Autor...
No se encontraron más posts
15 Comentarios The amazing Spider-man 2 [DVDRipScr][Latino][Mega]
COMO ME ENFERMO LA CABEZA ESTA PEL?
buen aporte amigo ke tal esta el audio
Allguien la descargo para corroborar?  
Le doy 7 a la calidad del video. Audio 4. Mil gracias.
Cita riohokes26: Mostrar
como dije en el post men, es de la calidad de las peliculas CAM, no es muy buena pero por lo menos no se escucha gente riendose y demas
calidad de video 8 , audio 4 .. perfecta para verla en una tablet.

mi opini?
en el momento en que se desfasa la voz del v?
muy buen aporte...  
mm me pone temporaliti error al descargar
Master sale un error temporario al descargar. Podrias resubirlo? Gracias por el aporte igualemente!!
Cita housedir: Mostrar

Brother no lo hago con estima de burlarme, ni ofenderte, pero tu mismo Te expones a que te digan que esta mal el titulo, ya que en tu titulo dice que es DVDRipScr y la definicion del DVDRipScr es: la misma calidad de el dvd original, pero con leyendas y hasta en algunos casos partes en negro, ya que esta es la que ocupan para los criticos o jurados de premios.

En conclucion, cambia el titulo a HdCam, ya que eso es lo que es tu subida y la gente sepa lo que es en realidad y evites esos insultos, De antemano gracias y buenas noches
Para dejar un comentario Registrate! o.. eres ya usuario? Accede!